eztv.re | Wednesday 8th of February 2023 06:59 PM ET
Search title:  
 

Autopsy The Last Hours Of S08E07 Lisa Left Eye Lopes HDTV x264-eSc EZTV

Episode Breakdown
Autopsy: The Last Hours of
Autopsy: The Last Hours of TV Show S08E07

Season: 8
Episode: 7
Air Date: 24 March, 2019
Download Links
     Torrent Download     Magnet Download
     Anonymous Download
Added 3 years ago by eztv (verified).
Tracker Statistics
Seeds: 0
Peers: 5
Stats generated @ 18:59 on 8th Feb 2023
Torrent Info
Torrent File: Autopsy.The.Last.Hours.Of.S08E07.Lisa.Left.Eye.Lopes.HDTV.x264-eSc[eztv].mkv
Torrent Hash: 4A39F104FEFAB1D08A0D53CEA9E4E9FABC846D82
Filesize: 304.24 MB
Released: 26th Mar 2019

File Format: MKV (Matroska)
Resolution: 720x404 px
Aspect Ratio: 16:9
Alternate Releases S L
Autopsy The Last Hours Of S08E07 Lisa Left Eye Lopes 720p HDTV x264-eSc 0 4

Autopsy: The Last Hours of S08E07 - Lisa "Left Eye" Lopes

Summary:
Autopsy The Last Hours Of S08E07 Lisa Left Eye Lopes HDTV x264-eSc EZTV
Autopsy: The Last Hours of S8E7 Screenshot
[header]



Celebrity fact and fiction are forever separated as Autopsy: The Last Hours Of... reveals the truth behind the controversial deaths of some of the most famous celebrities. The sudden and tragic passing of these global mega-stars sent the world into a frenzy fueled by hearsay and rumor. Now crucial medical evidence gained from the actual autopsies explains what killed the stars and reveals how they died, finally putting an end to the speculation.

http://www.tvmaze.com/shows/4959/autopsy-the-last-hours-of

Cast

Dr. Richard Shepherd ... Forensic Pathologist
Anjula Mutanda ... Psychologist
Eric Meyers ... Narrator
Iain Glen ... Narrator









Infomation


General
Format                                   : Matroska
Format version                           : Version 4
File size                                : 304 MiB
Duration                                 : 44 min 20 s
Overall bit rate                         : 959 kb/s
Encoded date                             : UTC 2019-03-26 03:47:12
Writing application                      : mkvmerge v22.0.0 ('At The End Of The World') 64-bit
Writing library                          : libebml v1.3.5 + libmatroska v1.4.8

Video
ID                                       : 1
Format                                   : AVC
Format/Info                              : Advanced Video Codec
Format profile                           : [email protected]
Format settings                          : CABAC / 4 Ref Frames
Format settings, CABAC                   : Yes
Format settings, RefFrames               : 4 frames
Codec ID                                 : V_MPEG4/ISO/AVC
Duration                                 : 44 min 20 s
Bit rate                                 : 828 kb/s
Width                                    : 720 pixels
Height                                   : 404 pixels
Display aspect ratio                     : 16:9
Frame rate mode                          : Constant
Frame rate                               : 29.970 (30000/1001) FPS
Color space                              : YUV
Chroma subsampling                       : 4:2:0
Bit depth                                : 8 bits
Scan type                                : Progressive
Bits/(Pixel*Frame)                       : 0.095
Stream size                              : 263 MiB (86%)
Writing library                          : x264 core 157 r2935 545de2f
Encoding settings                        : cabac=1 / ref=3 / deblock=1:0:0 / analyse=0x3:0x113 / me=hex / subme=7 / psy=1 / psy_rd=1.00:0.00 / mixed_ref=1 / me_range=16 / chroma_me=1 / trellis=1 / 8x8dct=1 / cqm=0 / deadzone=21,11 / fast_pskip=1 / chroma_qp_offset=-2 / threads=12 / lookahead_threads=2 / sliced_threads=0 / nr=0 / decimate=1 / interlaced=0 / bluray_compat=0 / constrained_intra=0 / bframes=3 / b_pyramid=2 / b_adapt=1 / b_bias=0 / direct=1 / weightb=1 / open_gop=0 / weightp=2 / keyint=250 / keyint_min=25 / scenecut=40 / intra_refresh=0 / rc_lookahead=40 / rc=crf / mbtree=1 / crf=19.0 / qcomp=0.60 / qpmin=0 / qpmax=69 / qpstep=4 / ip_ratio=1.40 / aq=1:1.00
Default                                  : Yes
Forced                                   : No

Audio
ID                                       : 2
Format                                   : AAC LC
Format/Info                              : Advanced Audio Codec Low Complexity
Codec ID                                 : A_AAC-2
Duration                                 : 44 min 20 s
Bit rate                                 : 129 kb/s
Channel(s)                               : 2 channels
Channel layout                           : L R
Sampling rate                            : 48.0 kHz
Frame rate                               : 46.875 FPS (1024 SPF)
Compression mode                         : Lossy
Delay relative to video                  : -21 ms
Stream size                              : 40.8 MiB (13%)
Language                                 : English
Default                                  : Yes
Forced                                   : No



[footer]
ssl  EZTV RSS EZTV Status | EZTV API | DMCA: [email protected]