eztv.re | Sunday 28th of February 2021 05:31 PM ET
Search: or 
 

Miss Scarlet And The Duke S01E06 720p HDTV x264-Cherzo EZTV

Episode Breakdown
Miss Scarlet and the Duke
Miss Scarlet and the Duke TV Show S01E06

Season: 1
Episode: 6
Air Date: 5 May, 2020
Download Links
     Torrent Download     Magnet Download
Added 9 months ago by eztv (verified).
Tracker Statistics
Seeds: 23
Peers: 6
Stats generated @ 17:31 on 28th Feb 2021
Torrent Info
Torrent File: Miss.Scarlet.And.The.Duke.S01E06.720p.HDTV.x264-Cherzo[eztv].mp4
Torrent Hash: 521F06F7D49D524AC5720F422480565E99125BCC
Filesize: 875.91 MB
Released: 9th May 2020

File Format: MP4 (MPEG-4)
Resolution: 1280x720 px
Aspect Ratio: 16:9

Miss Scarlet and the Duke S01E06 - The Case of Henry Scarlet

Summary:

Eliza pieces the puzzle together to find out what really happened to her father, while Duke looks past his prime suspect to investigate a surprising lead.



Miss Scarlet And The Duke S01E06 720p HDTV x264-Cherzo EZTV
Miss Scarlet and the Duke S1E6 Screenshot


Format                                   : MPEG-4
Format profile                           : Base Media / Version 2
Codec ID                                 : mp42 (isom/iso2/avc1/mp41)
File size                                : 876 MiB
Duration                                 : 49 min 33 s
Overall bit rate                         : 2 471 kb/s
Encoded date                             : UTC 2020-05-06 12:33:30
Tagged date                              : UTC 2020-05-06 12:33:30
Writing application                      : HandBrake 1.3.1 2020010400

Video
ID                                       : 1
Format                                   : AVC
Format/Info                              : Advanced Video Codec
Format profile                           : [email protected]
Format settings                          : CABAC / 4 Ref Frames
Format settings, CABAC                   : Yes
Format settings, ReFrames                : 4 frames
Codec ID                                 : avc1
Codec ID/Info                            : Advanced Video Coding
Duration                                 : 49 min 33 s
Bit rate                                 : 2 240 kb/s
Width                                    : 1 280 pixels
Height                                   : 720 pixels
Display aspect ratio                     : 16:9
Frame rate mode                          : Constant
Frame rate                               : 25.000 FPS
Color space                              : YUV
Chroma subsampling                       : 4:2:0
Bit depth                                : 8 bits
Scan type                                : Progressive
Bits/(Pixel*Frame)                       : 0.097
Stream size                              : 794 MiB (91%)
Writing library                          : x264 core 157 r2935 545de2f
Encoding settings                        : cabac=1 / ref=2 / deblock=1:0:0 / analyse=0x3:0x113 / me=hex / subme=6 / psy=1 / psy_rd=1.00:0.00 / mixed_ref=1 / me_range=16 / chroma_me=1 / trellis=1 / 8x8dct=1 / cqm=0 / deadzone=21,11 / fast_pskip=1 / chroma_qp_offset=-2 / threads=9 / lookahead_threads=1 / sliced_threads=0 / nr=0 / decimate=1 / interlaced=0 / bluray_compat=0 / constrained_intra=0 / bframes=3 / b_pyramid=2 / b_adapt=1 / b_bias=0 / direct=1 / weightb=1 / open_gop=0 / weightp=1 / keyint=250 / keyint_min=25 / scenecut=40 / intra_refresh=0 / rc_lookahead=30 / rc=crf / mbtree=1 / crf=17.0 / qcomp=0.60 / qpmin=0 / qpmax=69 / qpstep=4 / vbv_maxrate=25000 / vbv_bufsize=31250 / crf_max=0.0 / nal_hrd=none / filler=0 / ip_ratio=1.40 / aq=1:1.00
Encoded date                             : UTC 2020-05-06 12:33:30
Tagged date                              : UTC 2020-05-06 12:33:30
Color range                              : Limited
Color primaries                          : BT.709
Transfer characteristics                 : BT.709
Matrix coefficients                      : BT.709
Codec configuration box                  : avcC

Audio
ID                                       : 2
Format                                   : AAC LC
Format/Info                              : Advanced Audio Codec Low Complexity
Codec ID                                 : mp4a-40-2
Duration                                 : 49 min 33 s
Bit rate mode                            : Constant
Bit rate                                 : 225 kb/s
Channel(s)                               : 2 channels
Channel layout                           : L R
Sampling rate                            : 48.0 kHz
Frame rate                               : 46.875 FPS (1024 SPF)
Compression mode                         : Lossy
Stream size                              : 79.8 MiB (9%)
Title                                    : Stereo
Default                                  : Yes
Alternate group                          : 1
Encoded date                             : UTC 2020-05-06 12:33:30
Tagged date                              : UTC 2020-05-06 12:33:30
ssl  EZTV RSS EZTV Status | EZTV API | DMCA: [email protected]