eztv.re | Tuesday 19th of January 2021 08:25 PM ET
Search: or 
 

UFC 256 HDTV 720p x264-CLUNGE EZTV

Episode Breakdown
Sports
Sports TV Show

Air Date: 11 November, 2018
Download Links
     Torrent Download     Magnet Download
Added 1 month ago by eztv (verified).
Tracker Statistics
Seeds: 3
Peers: 0
Stats generated @ 20:25 on 19th Jan 2021
Torrent Info
Torrent File: UFC.256.Main.Card.HDTV.720p.x264-CLUNGE[eztv.re].mp4
Torrent Hash: DAE26CEB0C82B5FEE24F68200A89B226A95FC5DB
Filesize: 3.23 GB
Released: 13th Dec 2020

File Format: MP4 (MPEG-4)
Resolution: 1280x720 px
Aspect Ratio: 16:9
Alternate Releases S L
WWE This Week In WWE 2017 01 07 720p WEB h264-OVERTiME 0 0
UFC Top 10 One Round Wars 2017 04 20 INTERNAL 720p HDTV X264-DEADPOOL 0 0
UFC Top 10 One Round Wars 2017 04 20 INTERNAL HDTV X264-DEADPOOL 0 0
WWE From The Vault 2017 08 30 AJ Styles vs Kevin Owens 720p HDTV x264-CREED 0 0
WWE From The Vault 2017 08 30 AJ Styles vs Kevin Owens HDTV x264-CREED 0 0
WWE SmackDown Live 2018 03 27 720p HDTV x264-KYR 1 0
WWE SmackDown Live 2018 03 27 720p HDTV x264 1 0

Episode Description
UFC 256 HDTV 720p x264-CLUNGE EZTV
Sports Screenshot
Format                                   : MPEG-4
Format profile                           : Base Media
Codec ID                                 : isom (isom/iso2/avc1/mp41)
File size                                : 3.23 GiB
Duration                                 : 3 h 33 min
Overall bit rate mode                    : Variable
Overall bit rate                         : 2 160 kb/s
Encoded date                             : UTC 1904-01-01 00:00:00
Tagged date                              : UTC 1904-01-01 00:00:00
Writing application                      : Lavf57.71.100

Video
ID                                       : 1
Format                                   : AVC
Format/Info                              : Advanced Video Codec
Format profile                           : [email protected]
Format settings, CABAC                   : Yes
Format settings, ReFrames                : 1 frame
Codec ID                                 : avc1
Codec ID/Info                            : Advanced Video Coding
Duration                                 : 3 h 33 min
Bit rate mode                            : Variable
Bit rate                                 : 2 027 kb/s
Maximum bit rate                         : 2 500 kb/s
Width                                    : 1 280 pixels
Height                                   : 720 pixels
Display aspect ratio                     : 16:9
Frame rate mode                          : Constant
Frame rate                               : 25.000 FPS
Color space                              : YUV
Chroma subsampling                       : 4:2:0
Bit depth                                : 8 bits
Scan type                                : Progressive
Bits/(Pixel*Frame)                       : 0.088
Stream size                              : 3.03 GiB (94%)
Encoded date                             : UTC 1904-01-01 00:00:00
Tagged date                              : UTC 1904-01-01 00:00:00

Audio
ID                                       : 2
Format                                   : AAC
Format/Info                              : Advanced Audio Codec
Format profile                           : LC
Codec ID                                 : 40
Duration                                 : 3 h 33 min
Bit rate mode                            : Variable
Bit rate                                 : 128 kb/s
Maximum bit rate                         : 141 kb/s
Channel(s)                               : 2 channels
Channel positions                        : Front: L R
Sampling rate                            : 48.0 kHz
Frame rate                               : 46.875 FPS (1024 spf)
Compression mode                         : Lossy
Stream size                              : 196 MiB (6%)
Default                                  : Yes
Alternate group                          : 1
Encoded date                             : UTC 1904-01-01 00:00:00
Tagged date                              : UTC 1904-01-01 00:00:00

ssl  EZTV RSS EZTV Status | EZTV API | DMCA: [email protected]