eztv.re | Sunday 7th of March 2021 04:38 PM ET
Search: or 
 

Bull 2016 S05E05 Fallen Idols 1080p HDTV x264-aFi EZTV

Episode Breakdown
Bull
Bull TV Show S05E05

Season: 5
Episode: 5
Air Date: 4 January, 2021
Download Links
     Torrent Download     Magnet Download
Added 2 months ago by eztv (verified).
Tracker Statistics
Seeds: 3
Peers: 0
Stats generated @ 16:38 on 7th Mar 2021
Torrent Info
Torrent File: afi-bull.2016.s05e05.1080p[eztv.re].mkv
Torrent Hash: 87F0DDBD8F0DB403B6879E3C7A2A4BDCE08B3C68
Filesize: 1.56 GB
Released: 4th Jan 2021

File Format: MKV (Matroska)
Resolution: 1920x1080 px
Aspect Ratio: 16:9
Alternate Releases S L
Bull 2016 S05E05 720p HDTV x264-SYNCOPY 13 0
Bull 2016 S05E05 480p x264-mSD 10 1
Bull 2016 S05E05 720p HEVC x265-MeGusta 2 2
Bull 2016 S05E05 XviD-AFG 3 0
Bull 2016 S05E05 720p HDTV x265-MiNX 4 0
Bull 2016 S05E05 HDTV x264-PHOENiX 31 5
Bull 2016 S05E05 Fallen Idols 720p HDTV x264-aFi 2 0

Bull S05E05 - Fallen Idols

Summary:

Bull worries he can't convince a jury his religious leader client didn't kill his wife when a major secret the pastor is hiding about the marriage is revealed, damaging his credibility in court.



Bull 2016 S05E05 Fallen Idols 1080p HDTV x264-aFi EZTV
Bull S5E5 Screenshot
Fallen Idols
Episode 5x05; Jan 4, 2021
Bull worries he can't convince a jury his religious leader client didn't kill his wife when a major secret the pastor is hiding about the marriage is revealed, damaging his credibility in court

Bull.2016.S05E05.Fallen.Idols.1080p.HDTV.x264-aFi

Format: Matroska
Format version: Version 4
File size: 1.56 GiB
Duration: 42 min 23 s
Overall bit rate: 5 266 kb/s
Encoded date: UTC 2021-01-05 04:09:08
Writing application: mkvmerge v51.0.0 ('I Wish') 64-bit
Writing library: libebml v1.4.0 + libmatroska v1.6.2 / VideoReDo (Lavf58.29.100)

Video
ID: 1
Format: AVC
Format/Info: Advanced Video Codec
Format profile: [email protected]
Format settings: CABAC / 5 Ref Frames
Format settings, CABAC: Yes
Format settings, Reference: 5 frames
Codec ID: V_MPEG4/ISO/AVC
Duration: 42 min 23 s
Bit rate: 4 881 kb/s
Width: 1 920 pixels
Height: 1 080 pixels
Display aspect ratio: 16:9
Frame rate mode: Constant
Frame rate: 23.976 (23976/1000) FPS
Original frame rate: 23.976 (24000/1001) FPS
Color space: YUV
Chroma subsampling: 4:2:0
Bit depth: 8 bits
Scan type: Progressive
Bits/(Pixel*Frame): 0.098
Stream size: 1.44 GiB (93%)
Writing library: x264 core 160 r3000
Encoding settings: cabac=1 / ref=5 / deblock=1:0:0 / analyse=0x3:0x113 / me=hex / subme=8 / psy=1 / psy_rd=1.00:0.00 / mixed_ref=1 / me_range=16 / chroma_me=1 / trellis=2 / 8x8dct=1 / cqm=0 / deadzone=21,11 / fast_pskip=1 / chroma_qp_offset=-2 / threads=22 / lookahead_threads=3 / sliced_threads=0 / nr=0 / decimate=1 / interlaced=0 / bluray_compat=0 / constrained_intra=0 / bframes=3 / b_pyramid=2 / b_adapt=1 / b_bias=0 / direct=3 / weightb=1 / open_gop=0 / weightp=2 / keyint=250 / keyint_min=23 / scenecut=40 / intra_refresh=0 / rc_lookahead=50 / rc=crf / mbtree=1 / crf=18.0 / qcomp=0.60 / qpmin=0 / qpmax=69 / qpstep=4 / ip_ratio=1.40 / aq=1:1.00
Language: English
Default: No
Forced: No

Audio
ID: 2
Format: AC-3
Format/Info: Audio Coding 3
Commercial name: Dolby Digital
Codec ID: A_AC3
Duration: 42 min 23 s
Bit rate mode: Constant
Bit rate: 384 kb/s
Channel(s): 6 channels
Channel layout: L R C LFE Ls Rs
Sampling rate: 48.0 kHz
Frame rate: 31.250 FPS (1536 SPF)
Compression mode: Lossy
Stream size: 116 MiB (7%)
Language: English
Service kind: Complete Main
Default: Yes
Forced: No
ssl  EZTV RSS EZTV Status | EZTV API | DMCA: [email protected]