eztv.re | Saturday 27th of February 2021 11:10 PM ET
Search: or 
 

WandaVision S01E04 Episode 4 2160p WEB-DL DDP 5 1 HDR x265-TOMMY EZTV

Episode Breakdown
WandaVision
WandaVision TV Show S01E04

Season: 1
Episode: 4
Air Date: 29 January, 2021
Download Links
     Torrent Download     Magnet Download
Added 25 days ago by eztv (verified).
Tracker Statistics
Seeds: 31
Peers: 15
Stats generated @ 23:10 on 27th Feb 2021
Torrent Info
Torrent File: WandaVision.S01E04.Episode.4.2160p.WEB-DL.DDP.5.1.HDR.x265-TOMMY[eztv.re].mkv
Torrent Hash: 752CE58A28A4BEFC40FDDC58F00DE4DF69457597
Filesize: 4.93 GB
Released: 2nd Feb 2021

File Format: MKV (Matroska)
Resolution: 720x404 px
Aspect Ratio: 16:9
Alternate Releases S L
WandaVision S01E04 1080p WEB-DL H264 Atmos-EVO 313 31
WandaVision S01E04 1080p WEB H264-DRYB 60 9
WandaVision S01E04 1080p HEVC x265-MeGusta 359 84
WandaVision S01E04 480p x264-ZMNT 19 22
WandaVision S01E04 720p x265-ZMNT 101 29
WandaVision S01E04 XviD-ZMNT 17 4
WandaVision S01E04 720p WEB h264-KOGi 8 8

WandaVision S01E04 - We Interrupt This Program

Summary:

We travel to Westview with Captain Monica Rambeau and her team of S.W.O.R.D. agents as they try to figure out what's going on.



WandaVision S01E04 Episode 4 2160p WEB-DL DDP 5 1 HDR x265-TOMMY EZTV
WandaVision S1E4 Screenshot
Blends the style of classic sitcoms with the MCU in which Wanda Maximoff and Vision -two super-powered beings living their ideal suburban lives-begin to suspect that everything is not as it seems.

https://www.imdb.com/title/tt9140560/

General
Unique ID : 101309415729571957667403399622792634951 (0x4C377BD665C0AB47D5CA632EB3C0E247)
Complete name : WandaVision.S01E04.Episode.4.2160p.WEB-DL.DDP.5.1.HDR.x265-TOMMY.mkv
Format : Matroska
Format version : Version 4
File size : 4.93 GiB
Duration : 32 min 32 s
Overall bit rate : 21.7 Mb/s
Encoded date : UTC 2021-01-29 10:45:15
Writing application : mkvmerge v44.0.0 ('Domino') 64-bit
Writing library : libebml v1.3.10 + libmatroska v1.5.2

Video
ID : 1
Format : HEVC
Format/Info : High Efficiency Video Coding
Format profile : Main [email protected]@Main
Codec ID : V_MPEGH/ISO/HEVC
Duration : 32 min 32 s
Bit rate : 20.9 Mb/s
Width : 3 840 pixels
Height : 2 160 pixels
Display aspect ratio : 16:9
Frame rate mode : Constant
Frame rate : 23.976 (24000/1001) FPS
Color space : YUV
Chroma subsampling : 4:2:0
Bit depth : 10 bits
Bits/(Pixel*Frame) : 0.105
Stream size : 4.76 GiB (96%)
Writing library : x265 3.4:[Linux][GCC 7.5.0][64 bit] 10bit
Encoding settings : cpuid=1111039 / frame-threads=1 / wpp / no-pmode / no-pme / no-psnr / no-ssim / log-level=2 / input-csp=1 / input-res=3840x2160 / interlace=0 / total-frames=0 / level-idc=50 / high-tier=0 / uhd-bd=0 / ref=3 / no-allow-non-conformance / repeat-headers / annexb / no-aud / no-hrd / info / hash=0 / no-temporal-layers / no-open-gop / min-keyint=48 / keyint=48 / gop-lookahead=0 / bframes=2 / b-adapt=0 / b-pyramid / bframe-bias=0 / rc-lookahead=48 / lookahead-slices=8 / scenecut=0 / hist-scenecut=0 / radl=0 / splice / no-intra-refresh / ctu=32 / min-cu-size=8 / no-rect / no-amp / max-tu-size=16 / tu-inter-depth=2 / tu-intra-depth=2 / limit-tu=0 / rdoq-level=1 / dynamic-rd=0.00 / no-ssim-rd / signhide / no-tskip / nr-intra=0 / nr-inter=0 / no-constrained-intra / no-strong-intra-smoothing / max-merge=3 / limit-refs=1 / no-limit-modes / me=1 / subme=2 / merange=44 / temporal-mvp / no-frame-dup / no-hme / weightp / no-weightb / no-analyze-src-pics / deblock=0:0 / no-sao / no-sao-non-deblock / rd=4 / selective-sao=0 / early-skip / rskip / no-fast-intra / no-tskip-fast / no-cu-lossless / b-intra / no-splitrd-skip / rdpenalty=1 / psy-rd=1.60 / psy-rdoq=5.00 / no-rd-refine / no-lossless / cbqpoffs=0 / crqpoffs=0 / rc=abr / bitrate=23000 / qcomp=0.75 / qpstep=4 / stats-write=0 / stats-read=0 / vbv-maxrate=25000 / vbv-bufsize=25000 / vbv-init=0.9 / ipratio=1.40 / pbratio=1.30 / aq-mode=3 / aq-strength=1.00 / no-cutree / zone-count=0 / no-strict-cbr / qg-size=32 / no-rc-grain / qpmax=69 / qpmin=0 / no-const-vbv / sar=1 / overscan=0 / videoformat=5 / range=0 / colorprim=9 / transfer=16 / colormatrix=9 / chromaloc=0 / display-window=0 / cll=0,0 / min-luma=0 / max-luma=1023 / log2-max-poc-lsb=8 / vui-timing-info / vui-hrd-info / slices=1 / no-opt-qp-pps / no-opt-ref-list-length-pps / no-multi-pass-opt-rps / scenecut-bias=0.00 / hist-threshold=0.01 / no-opt-cu-delta-qp / no-aq-motion / no-hdr10 / hdr10-opt / no-dhdr10-opt / no-idr-recovery-sei / analysis-reuse-level=0 / analysis-save-reuse-level=0 / analysis-load-reuse-level=0 / scale-factor=0 / refine-intra=0 / refine-inter=0 / refine-mv=1 / refine-ctu-distortion=0 / no-limit-sao / ctu-info=0 / no-lowpass-dct / refine-analysis-type=0 / copy-pic=1 / max-ausize-factor=1.0 / no-dynamic-refine / no-single-sei / no-hevc-aq / no-svt / no-field / qp-adaptation-range=1.00 / no-scenecut-aware-qpconformance-window-offsets / right=0 / bottom=0
Default : Yes
Forced : No
Color range : Limited
Color primaries : BT.2020
Transfer characteristics : PQ
Matrix coefficients : BT.2020 non-constant

Audio
ID : 2
Format : E-AC-3 JOC
Format/Info : Enhanced AC-3 with Joint Object Coding
Commercial name : Dolby Digital Plus with Dolby Atmos
Codec ID : A_EAC3
Duration : 32 min 32 s
Bit rate mode : Constant
Bit rate : 768 kb/s
Channel(s) : 6 channels
Channel layout : L R C LFE Ls Rs
Sampling rate : 48.0 kHz
Frame rate : 31.250 FPS (1536 SPF)
Compression mode : Lossy
Delay relative to video : -3 ms
Stream size : 179 MiB (4%)
Title : English
Language : English
Service kind : Complete Main
Default : Yes
Forced : No
Complexity index : 16
Number of dynamic objects : 15
Bed channel count : 1 channel
Bed channel configuration : LFE

Text #1
ID : 3
Format : UTF-8
Codec ID : S_TEXT/UTF8
Codec ID/Info : UTF-8 Plain Text
Duration : 32 min 30 s
Bit rate : 46 b/s
Count of elements : 293
Stream size : 11.2 KiB (0%)
Title : Dansk
Language : Danish
Default : No
Forced : No

Text #2
ID : 4
Format : UTF-8
Codec ID : S_TEXT/UTF8
Codec ID/Info : UTF-8 Plain Text
Duration : 32 min 30 s
Bit rate : 49 b/s
Count of elements : 366
Stream size : 11.8 KiB (0%)
Title : Deutsch
Language : German
Default : No
Forced : No

Text #3
ID : 5
Format : UTF-8
Codec ID : S_TEXT/UTF8
Codec ID/Info : UTF-8 Plain Text
Duration : 27 min 57 s
Bit rate : 74 b/s
Count of elements : 449
Stream size : 15.4 KiB (0%)
Title : English (SDH)
Language : English
Default : No
Forced : No

Text #4
ID : 6
Format : UTF-8
Codec ID : S_TEXT/UTF8
Codec ID/Info : UTF-8 Plain Text
Duration : 32 min 30 s
Bit rate : 56 b/s
Count of elements : 402
Stream size : 13.5 KiB (0%)
Title : Español
Language : Spanish
Default : No
Forced : No

Text #5
ID : 7
Format : UTF-8
Codec ID : S_TEXT/UTF8
Codec ID/Info : UTF-8 Plain Text
Duration : 32 min 30 s
Bit rate : 56 b/s
Count of elements : 403
Stream size : 13.5 KiB (0%)
Title : Español (Latinoamericano)
Language : Spanish
Default : No
Forced : No

Text #6
ID : 8
Format : UTF-8
Codec ID : S_TEXT/UTF8
Codec ID/Info : UTF-8 Plain Text
Duration : 32 min 30 s
Bit rate : 47 b/s
Count of elements : 386
Stream size : 11.3 KiB (0%)
Title : Français
Language : French
Default : No
Forced : No

Text #7
ID : 9
Format : UTF-8
Codec ID : S_TEXT/UTF8
Codec ID/Info : UTF-8 Plain Text
Duration : 27 min 56 s
Bit rate : 54 b/s
Count of elements : 381
Stream size : 11.1 KiB (0%)
Title : Français (Canadien)
Language : French
Default : No
Forced : No

Text #8
ID : 10
Format : UTF-8
Codec ID : S_TEXT/UTF8
Codec ID/Info : UTF-8 Plain Text
Duration : 32 min 30 s
Bit rate : 51 b/s
Count of elements : 401
Stream size : 12.3 KiB (0%)
Title : Italiano
Language : Italian
Default : No
Forced : No

Text #9
ID : 11
Format : UTF-8
Codec ID : S_TEXT/UTF8
Codec ID/Info : UTF-8 Plain Text
Duration : 32 min 30 s
Bit rate : 50 b/s
Count of elements : 349
Stream size : 12.1 KiB (0%)
Title : Nederlands
Language : Dutch
Default : No
Forced : No

Text #10
ID : 12
Format : UTF-8
Codec ID : S_TEXT/UTF8
Codec ID/Info : UTF-8 Plain Text
Duration : 32 min 30 s
Bit rate : 49 b/s
Count of elements : 403
Stream size : 11.7 KiB (0%)
Title : Norsk
Language : Norwegian
Default : No
Forced : No

Text #11
ID : 13
Format : UTF-8
Codec ID : S_TEXT/UTF8
Codec ID/Info : UTF-8 Plain Text
Duration : 32 min 30 s
Bit rate : 55 b/s
Count of elements : 386
Stream size : 13.2 KiB (0%)
Title : Português
Language : Portuguese
Default : No
Forced : No

Text #12
ID : 14
Format : UTF-8
Codec ID : S_TEXT/UTF8
Codec ID/Info : UTF-8 Plain Text
Duration : 32 min 30 s
Bit rate : 56 b/s
Count of elements : 404
Stream size : 13.5 KiB (0%)
Title : Português (Brasil)
Language : Portuguese
Default : No
Forced : No

Text #13
ID : 15
Format : UTF-8
Codec ID : S_TEXT/UTF8
Codec ID/Info : UTF-8 Plain Text
Duration : 32 min 30 s
Bit rate : 48 b/s
Count of elements : 401
Stream size : 11.6 KiB (0%)
Title : Suomi
Language : Finnish
Default : No
Forced : No

Text #14
ID : 16
Format : UTF-8
Codec ID : S_TEXT/UTF8
Codec ID/Info : UTF-8 Plain Text
Duration : 32 min 30 s
Bit rate : 52 b/s
Count of elements : 323
Stream size : 12.4 KiB (0%)
Title : Svenska
Language : Swedish
Default : No
Forced : No
ssl  EZTV RSS EZTV Status | EZTV API | DMCA: [email protected]