eztv.re | Wednesday 8th of December 2021 10:56 PM ET
Search: or 
 

UEFA Champions League Highlights 2021-03-17 1080p50 HDTV DD2 0 x264-wAm EZTV

Episode Breakdown
Football Highlights UEFA Champions League: Valencia CF v Atalanta BC
Football Highlights UEFA Champions League: Valencia CF v Atalanta BC TV Show
Download Links
     Torrent Download     Magnet Download
Added 8 months ago by eztv (verified).
Tracker Statistics
Seeds: 0
Peers: 0
Stats generated @ 22:56 on 8th Dec 2021
Torrent Info
Torrent File: UEFA Champions League Highlights 2021-03-17 1080p50 HDTV DD2.0 x264-wAm[eztv.re].mkv
Torrent Hash: 8EDB2FBCE024FF5A4E2A44B81765A140D9EFB397
Filesize: 1.82 GB
Released: 18th Mar 2021

File Format: MKV (Matroska)
Resolution: 1920x1080 px
Aspect Ratio: 16:9
Alternate Releases S L
UEFA Champions League Highlights 2020-11-24 1080p50 HDTV DD2 0 x264-wAm 0 1
UEFA Champions League Highlights 2020-11-25 1080p50 HDTV DD2 0 x264-wAm 0 1
UEFA Champions League Highlights 2020-12-01 1080p50 HDTV DD2 0 x264-wAm 0 1
UEFA Champions League 2021 03 09 Round of 16 Second Leg Juventus vs Porto XviD-AFG 0 0
UEFA Champions League 2021 03 09 Round of 16 Second Leg Juventus vs Porto 480p x264-mSD 0 0
UEFA Champions League 2021 03 09 Round of 16 Second Leg Borussia Dortmund vs Sevilla 480p x264-mSD 0 0
UEFA Champions League 2021 03 09 Round of 16 Second Leg Borussia Dortmund vs Sevilla XviD-AFG 0 0

Episode Description
UEFA Champions League Highlights 2021-03-17 1080p50 HDTV DD2 0 x264-wAm EZTV
Football Highlights UEFA Champions League: Valencia CF v Atalanta BC Screenshot

Format                      : Matroska
Format version              : Version 4
File size                   : 1.82 GiB
Duration                    : 47 min 1 s
Overall bit rate            : 5 541 kb/s
Writing application         : Lavf58.29.100
Writing library             : Lavf58.29.100
ErrorDetectionType          : Per level 1

Video
ID                          : 1
Format                      : AVC
Format/Info                 : Advanced Video Codec
Format profile              : [email protected]
Format settings             : CABAC / 4 Ref Frames
Format settings, CABAC      : Yes
Format settings, Reference  : 4 frames
Codec ID                    : V_MPEG4/ISO/AVC
Duration                    : 47 min 1 s
Bit rate                    : 5 239 kb/s
Width                       : 1 920 pixels
Height                      : 1 080 pixels
Display aspect ratio        : 16:9
Frame rate mode             : Constant
Frame rate                  : 50.000 FPS
Color space                 : YUV
Chroma subsampling          : 4:2:0
Bit depth                   : 8 bits
Scan type                   : Progressive
Bits/(Pixel*Frame)          : 0.051
Stream size                 : 1.72 GiB (95%)
Writing library             : x264 core 157 r2935M 545de2f
Encoding settings           : cabac=1 / ref=4 / deblock=1:-3:-3 / analyse=0x3:0x113 / me=umh / subme=10 / psy=1 / psy_rd=1.00:0.15 / mixed_ref=1 / me_range=24 / chroma_me=1 / trellis=2 / 8x8dct=1 / cqm=0 / deadzone=21,11 / fast_pskip=1 / chroma_qp_offset=-3 / threads=128 / lookahead_threads=8 / sliced_threads=0 / nr=0 / decimate=1 / interlaced=0 / bluray_compat=0 / constrained_intra=0 / bframes=6 / b_pyramid=2 / b_adapt=2 / b_bias=0 / direct=1 / weightb=1 / open_gop=0 / weightp=2 / keyint=250 / keyint_min=25 / scenecut=40 / intra_refresh=0 / rc_lookahead=40 / rc=crf / mbtree=1 / crf=21.9 / qcomp=0.60 / qpmin=0 / qpmax=69 / qpstep=4 / ip_ratio=1.40 / aq=3:0.80
Default                     : Yes
Forced                      : No

Audio
ID                          : 2
Format                      : AC-3
Format/Info                 : Audio Coding 3
Commercial name             : Dolby Digital
Codec ID                    : A_AC3
Duration                    : 47 min 1 s
Bit rate mode               : Constant
Bit rate                    : 192 kb/s
Channel(s)                  : 2 channels
Channel layout              : L R
Sampling rate               : 48.0 kHz
Frame rate                  : 31.250 FPS (1536 SPF)
Compression mode            : Lossy
Stream size                 : 64.6 MiB (3%)
Service kind                : Complete Main
Default                     : Yes
Forced                      : No

ssl  EZTV RSS EZTV Status | EZTV API | DMCA: [email protected]