eztv.re | Monday 21st of June 2021 09:31 AM ET
Search: or 
 

Legacies (2018) S03E11 You Cant Run From Who You Are (1080p AMZN Webrip x265 10bit EAC3 5 1 - ArcX)[TAoE] EZTV

Episode Breakdown
Legacies
Legacies TV Show S03E11

Season: 3
Episode: 11
Air Date: 6 May, 2021
Download Links
     Torrent Download     Magnet Download
Added 1 month ago by eztv (verified).
Tracker Statistics
Seeds: 1
Peers: 5
Stats generated @ 09:31 on 21st Jun 2021
Torrent Info
Torrent File: Legacies (2018) S03E11 You Cant Run From Who You Are (1080p AMZN Webrip x265 10bit EAC3 5.1 - ArcX)[TAoE][eztv.re].mkv
Torrent Hash: F94D3C433FE7BCE4F5E3C7DB686DD5B1704C8CA9
Filesize: 1.28 GB
Released: 18th May 2021

File Format: MKV (Matroska)
Resolution: 1920x1080 px
Aspect Ratio: 16:9
Alternate Releases S L
Legacies S03E11 720p AMZN WEBRip DDP5 1 x264-KiNGS 6 1
Legacies S03E11 1080p AMZN WEBRip DDP5 1 x264-KiNGS 7 4
Legacies S03E11 720p WEB h264-GOSSIP 23 6
Legacies S03E11 1080p WEB h264-GOSSIP 15 7
Legacies S03E11 WEB x264-PHOENiX 34 6
Legacies S03E11 480p x264-mSD 13 6
Legacies S03E11 XviD-AFG 13 4

Legacies S03E11 - You Can't Run from Who You Are

Summary:

After receiving some inspiration from Cleo, Hope and Landon set out on a new mission. However, when that plan takes an unexpected turn, Josie and Wade step in to lend a hand. Elsewhere, Lizzie enlists MG's help learning more about Finch.



Legacies (2018) S03E11 You Cant Run From Who You Are (1080p AMZN Webrip x265 10bit EAC3 5 1 - ArcX)[TAoE] EZTV
Legacies S3E11 Screenshot



   









Encode Media Info

General
Unique ID                                : 40942934072126396169671590200605553779 (0x1ECD52808D7BBD7AF2FA2E708C3E3473)
Complete name                            : Legacies (2018) S03E11 You Cant Run From Who You Are (1080p AMZN Webrip x265 10bit EAC3 5.1 - ArcX)[TAoE].mkv
Format                                   : Matroska
Format version                           : Version 4
File size                                : 1.28 GiB
Duration                                 : 42 min 4 s
Overall bit rate                         : 4 369 kb/s
Movie name                               : Legacies (2018) S03E11 You Cant Run From Who You Are (1080p AMZN Webrip x265 10bit EAC3 5.1 - ArcX)[TAoE].mkv
Writing application                      : Lavf58.29.100
Writing library                          : Lavf58.29.100
ErrorDetectionType                       : Per level 1

Video
ID                                       : 1
Format                                   : HEVC
Format/Info                              : High Efficiency Video Coding
Format profile                           : Main [email protected]@Main
Codec ID                                 : V_MPEGH/ISO/HEVC
Duration                                 : 42 min 4 s
Bit rate                                 : 3 726 kb/s
Width                                    : 1 920 pixels
Height                                   : 1 080 pixels
Display aspect ratio                     : 16:9
Frame rate mode                          : Constant
Frame rate                               : 23.976 (24000/1001) FPS
Color space                              : YUV
Chroma subsampling                       : 4:2:0
Bit depth                                : 10 bits
Bits/(Pixel*Frame)                       : 0.075
Stream size                              : 1.09 GiB (85%)
Title                                    : Encoded by ArcX for TAoE using Kori-Web V1.0
Writing library                          : x265 3.2.1+1-b5c86a64bbbe:[Linux][GCC 9.2.1][64 bit] 10bit
Encoding settings                        : cpuid=1111039 / frame-threads=2 / wpp / no-pmode / no-pme / no-psnr / no-ssim / log-level=2 / input-csp=1 / input-res=1920x1080 / interlace=0 / total-frames=0 / level-idc=0 / high-tier=1 / uhd-bd=0 / ref=4 / no-allow-non-conformance / no-repeat-headers / annexb / no-aud / no-hrd / info / hash=0 / no-temporal-layers / open-gop / min-keyint=23 / keyint=250 / gop-lookahead=0 / bframes=8 / b-adapt=2 / b-pyramid / bframe-bias=0 / rc-lookahead=80 / lookahead-slices=4 / scenecut=40 / radl=0 / no-splice / no-intra-refresh / ctu=64 / min-cu-size=8 / no-rect / no-amp / max-tu-size=32 / tu-inter-depth=1 / tu-intra-depth=1 / limit-tu=0 / rdoq-level=2 / dynamic-rd=0.00 / no-ssim-rd / signhide / no-tskip / nr-intra=0 / nr-inter=0 / no-constrained-intra / no-strong-intra-smoothing / max-merge=3 / limit-refs=3 / limit-modes / me=3 / subme=5 / merange=57 / temporal-mvp / no-hme / weightp / no-weightb / no-analyze-src-pics / deblock=0:0 / sao / no-sao-non-deblock / rd=4 / selective-sao=4 / no-early-skip / rskip / no-fast-intra / no-tskip-fast / no-cu-lossless / no-b-intra / no-splitrd-skip / rdpenalty=0 / psy-rd=1.30 / psy-rdoq=2.00 / no-rd-refine / no-lossless / cbqpoffs=0 / crqpoffs=0 / rc=crf / crf=20.0 / qcomp=0.60 / qpstep=4 / stats-write=0 / stats-read=0 / ipratio=1.40 / pbratio=1.30 / aq-mode=4 / aq-strength=1.10 / cutree / zone-count=0 / no-strict-cbr / qg-size=32 / no-rc-grain / qpmax=69 / qpmin=0 / no-const-vbv / sar=1 / overscan=0 / videoformat=5 / range=0 / colorprim=2 / transfer=2 / colormatrix=2 / chromaloc=0 / display-window=0 / cll=0,0 / min-luma=0 / max-luma=1023 / log2-max-poc-lsb=8 / vui-timing-info / vui-hrd-info / slices=1 / no-opt-qp-pps / no-opt-ref-list-length-pps / no-multi-pass-opt-rps / scenecut-bias=0.05 / no-opt-cu-delta-qp / no-aq-motion / no-hdr / no-hdr-opt / no-dhdr10-opt / no-idr-recovery-sei / analysis-reuse-level=5 / scale-factor=0 / refine-intra=0 / refine-inter=0 / refine-mv=1 / refine-ctu-distortion=0 / no-limit-sao / ctu-info=0 / no-lowpass-dct / refine-analysis-type=0 / copy-pic=1 / max-ausize-factor=1.0 / no-dynamic-refine / no-single-sei / no-hevc-aq / no-svt / no-field / qp-adaptation-range=1.00
Default                                  : Yes
Forced                                   : No
Color range                              : Limited

Audio
ID                                       : 2
Format                                   : E-AC-3
Format/Info                              : Enhanced AC-3
Commercial name                          : Dolby Digital Plus
Codec ID                                 : A_EAC3
Duration                                 : 42 min 4 s
Bit rate mode                            : Constant
Bit rate                                 : 640 kb/s
Channel(s)                               : 6 channels
Channel layout                           : L R C LFE Ls Rs
Sampling rate                            : 48.0 kHz
Frame rate                               : 31.250 FPS (1536 SPF)
Bit depth                                : 32 bits
Compression mode                         : Lossy
Stream size                              : 193 MiB (15%)
Language                                 : English
Service kind                             : Complete Main
Default                                  : Yes
Forced                                   : No

Text #1
ID                                       : 3
Format                                   : UTF-8
Codec ID                                 : S_TEXT/UTF8
Codec ID/Info                            : UTF-8 Plain Text
Duration                                 : 41 min 10 s
Bit rate                                 : 85 b/s
Count of elements                        : 824
Stream size                              : 25.8 KiB (0%)
Language                                 : English
Default                                  : No
Forced                                   : No

Text #2
ID                                       : 4
Format                                   : UTF-8
Codec ID                                 : S_TEXT/UTF8
Codec ID/Info                            : UTF-8 Plain Text
Duration                                 : 41 min 15 s
Bit rate                                 : 89 b/s
Count of elements                        : 879
Stream size                              : 27.0 KiB (0%)
Title                                    : SDH
Language                                 : English
Default                                  : No
Forced                                   : No

Source Media Info
1080p AMZN WEB-DL DDPS5.1 KINGS
ssl  EZTV RSS EZTV Status | EZTV API | DMCA: [email protected]