eztv.re | Friday 24th of September 2021 04:27 AM ET
Search: or 
 

Wentworth S09E01 1080p WEB-DL-Nemo EZTV

Episode Breakdown
Wentworth
Wentworth TV Show S09E01

Season: 9
Episode: 1
Air Date: 24 August, 2021
Download Links
     Torrent Download     Magnet Download
Added 30 days ago by eztv (verified).
Tracker Statistics
Seeds: 84
Peers: 11
Stats generated @ 04:27 on 24th Sep 2021
Torrent Info
Torrent File: Wentworth S09E01 - 1080p WEB-DL Nemo[eztv.re].mkv
Torrent Hash: 57A7A4803D20B441F58326B2E6B65CFBA0F14607
Filesize: 2.03 GB
Released: 24th Aug 2021

File Format: MKV (Matroska)
Resolution: 1920x1080 px
Aspect Ratio: 16:9
Alternate Releases S L
Wentworth S09E01 HDTV x264-MAKIMAKI 2 1
Wentworth S09E01 480p x264-mSD 9 1
Wentworth S09E01 1080p HEVC x265-MeGusta 7 2
Wentworth S09E01 720p HDTV x264-WURUHI 11 1
Wentworth S09E01 720p HEVC x265-MeGusta 11 1
Wentworth S09E01 XviD-AFG 13 2

Wentworth S09E01 - Rogue

Summary:

When the gates of Wentworth Correctional Centre open on the final season, three weeks have passed since the shivving of Allie. With Allie's attacker still at large, no one, least of all the H1 family, realise that they have a terrorist and would-be murderer, Judy Bryant, in their midst.



Wentworth S09E01 1080p WEB-DL-Nemo EZTV
Wentworth S9E1 Screenshot
General
Unique ID                                : 234401607546039771417200679360757050781 (0xB0581B85064392828CAAC233F8712D9D)
Complete name                            : Wentworth S09E01 - 1080p WEB-DL Nemo.mkv
Format                                   : Matroska
Format version                           : Version 4
File size                                : 2.03 GiB
Duration                                 : 47 min 18 s
Overall bit rate mode                    : Constant
Overall bit rate                         : 6 152 kb/s
Writing application                      : Lavf58.27.103
Writing library                          : Lavf58.27.103
ErrorDetectionType                       : Per level 1

Video
ID                                       : 1
Format                                   : AVC
Format/Info                              : Advanced Video Codec
Format profile                           : [email protected]
Format settings                          : CABAC / 2 Ref Frames
Format settings, CABAC                   : Yes
Format settings, ReFrames                : 2 frames
Codec ID                                 : V_MPEG4/ISO/AVC
Duration                                 : 47 min 18 s
Bit rate mode                            : Constant
Bit rate                                 : 5 800 kb/s
Width                                    : 1 920 pixels
Height                                   : 1 080 pixels
Display aspect ratio                     : 16:9
Frame rate mode                          : Constant
Frame rate                               : 25.000 FPS
Color space                              : YUV
Chroma subsampling                       : 4:2:0
Bit depth                                : 8 bits
Scan type                                : Progressive
Bits/(Pixel*Frame)                       : 0.112
Stream size                              : 1.87 GiB (92%)
Writing library                          : Elemental H.264
Default                                  : Yes
Forced                                   : No

Audio
ID                                       : 2
Format                                   : AC-3
Format/Info                              : Audio Coding 3
Commercial name                          : Dolby Digital
Codec ID                                 : A_AC3
Duration                                 : 47 min 18 s
Bit rate mode                            : Constant
Bit rate                                 : 384 kb/s
Channel(s)                               : 6 channels
Channel layout                           : L R C LFE Ls Rs
Sampling rate                            : 48.0 kHz
Frame rate                               : 31.250 FPS (1536 SPF)
Bit depth                                : 16 bits
Compression mode                         : Lossy
Stream size                              : 130 MiB (6%)
Language                                 : English
Service kind                             : Complete Main
Default                                  : Yes
Forced                                   : No


ssl  EZTV RSS EZTV Status | EZTV API | DMCA: [email protected]