eztv.re | Friday 24th of September 2021 05:48 AM ET
Search: or 
 

Wentworth S09E03 1080p WEB-DL-Nemo EZTV

Episode Breakdown
Wentworth
Wentworth TV Show S09E03

Season: 9
Episode: 3
Air Date: 7 September, 2021
Download Links
     Torrent Download     Magnet Download
Added 16 days ago by eztv (verified).
Tracker Statistics
Seeds: 70
Peers: 7
Stats generated @ 05:48 on 24th Sep 2021
Torrent Info
Torrent File: Wentworth S09E03 - 1080p WEB-DL Nemo[eztv.re].mkv
Torrent Hash: 1DE1A061B6B6D675E7E3BB27AEE7F0D43C70669D
Filesize: 1.95 GB
Released: 7th Sep 2021

File Format: MKV (Matroska)
Resolution: 1920x1080 px
Aspect Ratio: 16:9
Alternate Releases S L
Wentworth S09E03 1080p HDTV H264-WURUHI 5 0
Wentworth S09E03 HDTV x264-MAKIMAKI 5 1
Wentworth S09E03 720p HDTV x264-WURUHI 8 0
Wentworth S09E03 480p x264-mSD 13 3
Wentworth S09E03 XviD-AFG 12 4
Wentworth S09E03 720p HEVC x265-MeGusta 16 3
Wentworth S09E03 1080p HEVC x265-MeGusta 13 0

Wentworth S09E03 - The Ties That Bind

Summary:

Boomer faces a crisis of courage when she takes on Lou for top dog and Judy convinces Allie to help with her bid for extradition.



Wentworth S09E03 1080p WEB-DL-Nemo EZTV
Wentworth S9E3 Screenshot
Format                                   : Matroska
Format version                           : Version 4 / Version 2
File size                                : 1.95 GiB
Duration                                 : 45 min 27 s
Overall bit rate mode                    : Constant
Overall bit rate                         : 6 154 kb/s
Writing application                      : Lavf58.27.103
Writing library                          : Lavf58.27.103 / Lavf58.27.103
ErrorDetectionType                       : Per level 1

Video
ID                                       : 1
Format                                   : AVC
Format/Info                              : Advanced Video Codec
Format profile                           : [email protected]
Format settings, CABAC                   : Yes
Format settings, ReFrames                : 2 frames
Codec ID                                 : V_MPEG4/ISO/AVC
Duration                                 : 45 min 27 s
Bit rate mode                            : Constant
Bit rate                                 : 5 800 kb/s
Width                                    : 1 920 pixels
Height                                   : 1 080 pixels
Display aspect ratio                     : 16:9
Frame rate mode                          : Constant
Frame rate                               : 25.000 FPS
Color space                              : YUV
Chroma subsampling                       : 4:2:0
Bit depth                                : 8 bits
Scan type                                : Progressive
Bits/(Pixel*Frame)                       : 0.112
Stream size                              : 1.79 GiB (92%)
Writing library                          : Elemental H.264
Default                                  : Yes
Forced                                   : No
DURATION                                 : 00:45:27.560000000
HANDLER_NAME                             : USP Video Handler

Audio
ID                                       : 2
Format                                   : AC-3
Format/Info                              : Audio Coding 3
Mode extension                           : CM (complete main)
Format settings, Endianness              : Big
Codec ID                                 : A_AC3
Duration                                 : 45 min 27 s
Bit rate mode                            : Constant
Bit rate                                 : 384 kb/s
Channel(s)                               : 6 channels
Channel positions                        : Front: L C R, Side: L R, LFE
Sampling rate                            : 48.0 kHz
Frame rate                               : 31.250 FPS (1536 spf)
Bit depth                                : 16 bits
Compression mode                         : Lossy
Stream size                              : 125 MiB (6%)
Language                                 : English
Default                                  : Yes
Forced                                   : No
DURATION                                 : 00:45:27.584000000
HANDLER_NAME                             : USP Sound Handler


ssl  EZTV RSS EZTV Status | EZTV API | DMCA: [email protected]