eztv.re | Saturday 25th of September 2021 07:27 AM ET
Search: or 
 

Kashs Corner S02E03 Honoring the Fallen of 911 Is America Safe 20 Years On WEB-DL 1080p h264-NCSWC EZTV

Episode Breakdown
Other TV Shows
Other TV Shows TV Show S02E03

Season: 2
Episode: 3
Download Links
     Torrent Download     Magnet Download
Added 13 days ago by eztv (verified).
Tracker Statistics
Seeds: 0
Peers: 3
Stats generated @ 07:27 on 25th Sep 2021
Torrent Info
Torrent File: Kashs.Corner.S02E03.Honoring.the.Fallen.of.911.Is.America.Safe.20.Years.On.WEB-DL.1080p.h264-NCSWC[eztv.re].mp4
Torrent Hash: 1513466DC1AAE54B3BC294A84E241E0B374FC3B4
Filesize: 436.40 MB
Released: 11th Sep 2021

File Format: MP4 (MPEG-4)
Resolution: 1920x1080 px
Aspect Ratio: 16:9

Episode Description
Kashs Corner S02E03 Honoring the Fallen of 911 Is America Safe 20 Years On WEB-DL 1080p h264-NCSWC EZTV
Other TV Shows S2E3 Screenshot
Kashs.Corner.S02E03.Honoring.the.Fallen.of.911.Is.America.Safe.20.Years.On.WEB-DL.1080p.h264-NCSWC





Honoring the Heroes and the Fallen of 9/11; Is America Safer 20 Years On?

“We need to honor all those who perished on those flights and also honor those that responded and answered the call, not just on 9/11, but in the 20 years since.”

In this episode, Kash Patel and Jan Jekielek look back at the harrowing events that led up to the worst terrorist attack in American history, the War on Terror that followed, and what the United States should do now.

“We have to be more forward-looking and not just reactionary as terrorist acts occur,” Patel says.


*** About Kash's Corner ***

To many, the name Kash Patel has become legendary. He was the investigator who uncovered key parts of what would become one of the biggest scandals in American history—surveillance of a presidential campaign and then sitting president on the basis of unverified and highly suspect research by the opposing campaign.

After two decades of work in the U.S. government, Kash Patel has singular insights into the inner workings of much of America’s national security apparatus, from the Department of Justice to America’s counterterrorism efforts.

Now, in this new exclusive Epoch Times production, Epoch Times senior editor Jan Jekielek will sit down every week with Kash Patel, who will give us his insider take of the big events of our day, from the evolving Israel-Hamas conflict to the intelligence community’s investigations into the origins of COVID-19, or CCP virus.

New episodes of “Kash’s Corner” will be released every Friday at 8pm ET—only on Epoch TV.



*** About Kash Patel ***

https://www.defense.gov/Our-Story/Biographies/Biography/Article/2418491/kashyap-p-patel/

Kash Patel is most well-known for his work on the House Intelligence Committee, leading Congressman Devin Nunes’ investigation into allegations of Trump-Russia collusion. A former DOJ terrorism prosecutor, he was personally recruited by Congressman Nunes, and he would play a critical role uncovering the FBI’s abuses and beyond, a major scandal later dubbed “Spygate.”

But beyond that, Kash Patel has held key roles across a large swath of America’s national security apparatus. He led counterterrorism at the National Security Council—where he oversaw the elimination of ISIS and Al-Qaeda leadership like al-Baghdadi and Qasem al-Rimi. He also served as the right-hand man to the Acting Director of National Intelligence Ric Grenell, Chief of Staff to Acting Secretary of Defense Christopher Miller, and was at one point the presidential aide responsible for the nuclear football.


Format                      : MPEG-4
Format profile              : Base Media
Codec ID                    : isom (isom/iso2/avc1/mp41)
File size                   : 436 MiB
Duration                    : 34 min 59 s
Overall bit rate mode       : Variable
Overall bit rate            : 1 744 kb/s
Writing application         : Lavf58.29.100

Video
ID                          : 1
Format                      : AVC
Format/Info                 : Advanced Video Codec
Format profile              : [email protected]
Format settings             : CABAC / 4 Ref Frames
Format settings, CABAC      : Yes
Format settings, Reference  : 4 frames
Codec ID                    : avc1
Codec ID/Info               : Advanced Video Coding
Duration                    : 34 min 59 s
Bit rate                    : 1 607 kb/s
Width                       : 1 920 pixels
Height                      : 1 080 pixels
Display aspect ratio        : 16:9
Frame rate mode             : Constant
Frame rate                  : 29.970 (30000/1001) FPS
Color space                 : YUV
Chroma subsampling          : 4:2:0
Bit depth                   : 8 bits
Scan type                   : Progressive
Bits/(Pixel*Frame)          : 0.026
Stream size                 : 402 MiB (92%)
Writing library             : x264 core 163
Encoding settings           : cabac=1 / ref=1 / deblock=1:0:0 / analyse=0x3:0x113 / me=hex / subme=2 / psy=1 / psy_rd=1.00:0.00 / mixed_ref=0 / me_range=16 / chroma_me=1 / trellis=0 / 8x8dct=1 / cqm=0 / deadzone=21,11 / fast_pskip=1 / chroma_qp_offset=0 / threads=34 / lookahead_threads=8 / sliced_threads=0 / nr=0 / decimate=1 / interlaced=0 / bluray_compat=0 / constrained_intra=0 / bframes=3 / b_pyramid=2 / b_adapt=1 / b_bias=0 / direct=1 / weightb=1 / open_gop=0 / weightp=1 / keyint=250 / keyint_min=25 / scenecut=40 / intra_refresh=0 / rc_lookahead=10 / rc=crf / mbtree=1 / crf=24.0 / qcomp=0.60 / qpmin=0 / qpmax=69 / qpstep=4 / ip_ratio=1.40 / aq=1:1.00
Color range                 : Limited
Color primaries             : BT.709
Transfer characteristics    : BT.709
Matrix coefficients         : BT.709
Codec configuration box     : avcC

Audio
ID                          : 2
Format                      : AAC LC
Format/Info                 : Advanced Audio Codec Low Complexity
Codec ID                    : mp4a-40-2
Duration                    : 34 min 59 s
Bit rate mode               : Variable
Bit rate                    : 128 kb/s
Maximum bit rate            : 132 kb/s
Channel(s)                  : 2 channels
Channel layout              : L R
Sampling rate               : 48.0 kHz
Frame rate                  : 46.875 FPS (1024 SPF)
Compression mode            : Lossy
Stream size                 : 32.0 MiB (7%)
Language                    : English
Default                     : Yes
Alternate group             : 1
ssl  EZTV RSS EZTV Status | EZTV API | DMCA: [email protected]