eztv.re | Monday 20th of September 2021 03:26 PM ET
Search: or 
 

Wentworth S09E04 1080p WEB-DL-nemo EZTV

Episode Breakdown
Wentworth
Wentworth TV Show S09E04

Season: 9
Episode: 4
Air Date: 14 September, 2021
Download Links
     Torrent Download     Magnet Download
Added 5 days ago by eztv (verified).
Tracker Statistics
Seeds: 166
Peers: 27
Stats generated @ 15:26 on 20th Sep 2021
Torrent Info
Torrent File: Wentworth S09E04 - 1080p WEB-DL Nemo[eztv.re].mkv
Torrent Hash: 2202D9FCA876C412224CCB198528ACCB96DADBD0
Filesize: 2.00 GB
Released: 14th Sep 2021

File Format: MKV (Matroska)
Resolution: 1920x1080 px
Aspect Ratio: 16:9

Wentworth S09E04 - Judas Kiss

Summary:

Allie plans her revenge against Lou, while a former nemesis of Ferguson enters Wentworth.



Wentworth S09E04 1080p WEB-DL-nemo EZTV
Wentworth S9E4 Screenshot
Format                                   : Matroska
Format version                           : Version 4 / Version 2
File size                                : 2.00 GiB
Duration                                 : 46 min 28 s
Overall bit rate mode                    : Constant
Overall bit rate                         : 6 151 kb/s
Writing application                      : Lavf58.27.103
Writing library                          : Lavf58.27.103 / Lavf58.27.103
ErrorDetectionType                       : Per level 1

Video
ID                                       : 1
Format                                   : AVC
Format/Info                              : Advanced Video Codec
Format profile                           : [email protected]
Format settings, CABAC                   : Yes
Format settings, ReFrames                : 2 frames
Codec ID                                 : V_MPEG4/ISO/AVC
Duration                                 : 46 min 28 s
Bit rate mode                            : Constant
Bit rate                                 : 5 800 kb/s
Width                                    : 1 920 pixels
Height                                   : 1 080 pixels
Display aspect ratio                     : 16:9
Frame rate mode                          : Constant
Frame rate                               : 25.000 FPS
Color space                              : YUV
Chroma subsampling                       : 4:2:0
Bit depth                                : 8 bits
Scan type                                : Progressive
Bits/(Pixel*Frame)                       : 0.112
Stream size                              : 1.83 GiB (92%)
Writing library                          : Elemental H.264
Default                                  : Yes
Forced                                   : No
DURATION                                 : 00:46:28.920000000
HANDLER_NAME                             : USP Video Handler

Audio
ID                                       : 2
Format                                   : AC-3
Format/Info                              : Audio Coding 3
Mode extension                           : CM (complete main)
Format settings, Endianness              : Big
Codec ID                                 : A_AC3
Duration                                 : 46 min 28 s
Bit rate mode                            : Constant
Bit rate                                 : 384 kb/s
Channel(s)                               : 6 channels
Channel positions                        : Front: L C R, Side: L R, LFE
Sampling rate                            : 48.0 kHz
Frame rate                               : 31.250 FPS (1536 spf)
Bit depth                                : 16 bits
Compression mode                         : Lossy
Stream size                              : 128 MiB (6%)
Language                                 : English
Default                                  : Yes
Forced                                   : No
DURATION                                 : 00:46:28.928000000
HANDLER_NAME                             : USP Sound Handler

ssl  EZTV RSS EZTV Status | EZTV API | DMCA: [email protected]