eztv.re | Saturday 23rd of October 2021 02:58 AM ET
Search: or 
 

Foundation S01E01 The Emperors Peace 2160p ATVP WEB-DL DDP5 1 HDR HEVC-CasStudio mkv EZTV

Episode Breakdown
Foundation
Foundation TV Show S01E01

Season: 1
Episode: 1
Air Date: 24 September, 2021
Download Links
     Torrent Download     Magnet Download
Added 28 days ago by eztv (verified).
Tracker Statistics
Seeds: 84
Peers: 25
Stats generated @ 02:58 on 23rd Oct 2021
Torrent Info
Torrent File: Foundation.S01E01.The.Emperors.Peace.2160p.ATVP.WEB-DL.DDP5.1.HDR.HEVC-CasStudio[eztv.re].mkv
Torrent Hash: 8D61C6FABD498ED1E6FD36F3D0B35F9ED4DDCB93
Filesize: 12.06 GB
Released: 24th Sep 2021

File Format: MKV (Matroska)
Resolution: 720x404 px
Aspect Ratio: 16:9
Alternate Releases S L
Foundation S01E01 720p WEB H264-GGEZ 308 69
Foundation S01E01 1080p WEB H264-GGEZ 244 29
Foundation S01E01 XviD-AFG 95 15
Foundation S01E01 480p x264-mSD 69 16
Foundation S01E01 720p HEVC x265-MeGusta 82 16
Foundation S01E01 1080p HEVC x265-MeGusta 1,182 229
Foundation S01E01 480p x264-ZMNT 33 13

Foundation S01E01 - The Emperor's Peace

Summary:

Gaal Dornick leaves her life in Synnax behind when the galaxy's greatest mathematician, Hari Seldon, invites her to Trantor.



Foundation S01E01 The Emperors Peace 2160p ATVP WEB-DL DDP5 1 HDR HEVC-CasStudio mkv EZTV
Foundation S1E1 Screenshot
https://www.imdb.com/title/tt0804484/



Complete name                            : Foundation.S01E01.The.Emperors.Peace.2160p.ATVP.WEB-DL.DDP5.1.HDR.HEVC-CasStudio.mkv
Format                                   : Matroska
Format version                           : Version 4
File size                                : 12.1 GiB
Duration                                 : 1 h 9 min
Overall bit rate                         : 24.9 Mb/s
Writing application                      : mkvmerge v61.0.0 ('So') 64-bit
Writing library                          : libebml v1.4.2 + libmatroska v1.6.4

Video
ID                                       : 1
Format                                   : HEVC
Format/Info                              : High Efficiency Video Coding
Format profile                           : Main [email protected]@High
HDR format                               : SMPTE ST 2086, HDR10 compatible
Codec ID                                 : V_MPEGH/ISO/HEVC
Duration                                 : 1 h 9 min
Bit rate                                 : 24.1 Mb/s
Width                                    : 3 840 pixels
Height                                   : 1 920 pixels
Display aspect ratio                     : 2.000
Frame rate mode                          : Constant
Frame rate                               : 23.976 FPS
Color space                              : YUV
Chroma subsampling                       : 4:2:0 (Type 2)
Bit depth                                : 10 bits
Bits/(Pixel*Frame)                       : 0.137
Stream size                              : 11.7 GiB (97%)
Language                                 : English
Default                                  : Yes
Forced                                   : No
Color range                              : Limited
Color primaries                          : BT.2020
Transfer characteristics                 : PQ
Matrix coefficients                      : BT.2020 non-constant
Mastering display color primaries        : Display P3
Mastering display luminance              : min: 0.0050 cd/m2, max: 1000 cd/m2
Maximum Content Light Level              : 2666 cd/m2
Maximum Frame-Average Light Level        : 1008 cd/m2

Audio
ID                                       : 2
Format                                   : E-AC-3 JOC
Format/Info                              : Enhanced AC-3 with Joint Object Coding
Commercial name                          : Dolby Digital Plus with Dolby Atmos
Codec ID                                 : A_EAC3
Duration                                 : 1 h 9 min
Bit rate mode                            : Constant
Bit rate                                 : 768 kb/s
Channel(s)                               : 6 channels
Channel layout                           : L R C LFE Ls Rs
Sampling rate                            : 48.0 kHz
Frame rate                               : 31.250 FPS (1536 SPF)
Compression mode                         : Lossy
Stream size                              : 380 MiB (3%)
Language                                 : English
Service kind                             : Complete Main
Default                                  : Yes
Forced                                   : No
Complexity index                         : 16
Number of dynamic objects                : 15
Bed channel count                        : 1 channel
Bed channel configuration                : LFE

Text #1
ID                                       : 3
Format                                   : UTF-8
Codec ID                                 : S_TEXT/UTF8
Codec ID/Info                            : UTF-8 Plain Text
Duration                                 : 1 h 6 min
Bit rate                                 : 59 b/s
Count of elements                        : 807
Stream size                              : 29.1 KiB (0%)
Language                                 : English
Default                                  : No
Forced                                   : No

Text #2
ID                                       : 4
Format                                   : UTF-8
Codec ID                                 : S_TEXT/UTF8
Codec ID/Info                            : UTF-8 Plain Text
Duration                                 : 1 h 6 min
Bit rate                                 : 63 b/s
Count of elements                        : 880
Stream size                              : 31.1 KiB (0%)
Title                                    : English (SDH)
Language                                 : English
Default                                  : No
Forced                                   : No

Text #3
ID                                       : 5
Format                                   : UTF-8
Codec ID                                 : S_TEXT/UTF8
Codec ID/Info                            : UTF-8 Plain Text
Duration                                 : 1 h 8 min
Bit rate                                 : 82 b/s
Count of elements                        : 812
Stream size                              : 41.0 KiB (0%)
Language                                 : Arabic
Default                                  : No
Forced                                   : No

Text #4
ID                                       : 6
Format                                   : UTF-8
Codec ID                                 : S_TEXT/UTF8
Codec ID/Info                            : UTF-8 Plain Text
Duration                                 : 1 h 8 min
Bit rate                                 : 92 b/s
Count of elements                        : 783
Stream size                              : 46.1 KiB (0%)
Language                                 : Bulgarian
Default                                  : No
Forced                                   : No

Text #5
ID                                       : 7
Format                                   : UTF-8
Codec ID                                 : S_TEXT/UTF8
Codec ID/Info                            : UTF-8 Plain Text
Duration                                 : 1 h 8 min
Bit rate                                 : 53 b/s
Count of elements                        : 809
Stream size                              : 26.5 KiB (0%)
Language                                 : Chinese
Default                                  : No
Forced                                   : No

Text #6
ID                                       : 8
Format                                   : UTF-8
Codec ID                                 : S_TEXT/UTF8
Codec ID/Info                            : UTF-8 Plain Text
Duration                                 : 1 h 8 min
Bit rate                                 : 52 b/s
Count of elements                        : 807
Stream size                              : 26.1 KiB (0%)
Language                                 : Chinese
Default                                  : No
Forced                                   : No

Text #7
ID                                       : 9
Format                                   : UTF-8
Codec ID                                 : S_TEXT/UTF8
Codec ID/Info                            : UTF-8 Plain Text
Duration                                 : 1 h 8 min
Bit rate                                 : 52 b/s
Count of elements                        : 809
Stream size                              : 26.2 KiB (0%)
Language                                 : Chinese
Default                                  : No
Forced                                   : No

Text #8
ID                                       : 10
Format                                   : UTF-8
Codec ID                                 : S_TEXT/UTF8
Codec ID/Info                            : UTF-8 Plain Text
Duration                                 : 1 h 8 min
Bit rate                                 : 58 b/s
Count of elements                        : 784
Stream size                              : 29.1 KiB (0%)
Language                                 : Czech
Default                                  : No
Forced                                   : No

Text #9
ID                                       : 11
Format                                   : UTF-8
Codec ID                                 : S_TEXT/UTF8
Codec ID/Info                            : UTF-8 Plain Text
Duration                                 : 1 h 8 min
Bit rate                                 : 60 b/s
Count of elements                        : 797
Stream size                              : 30.2 KiB (0%)
Language                                 : Danish
Default                                  : No
Forced                                   : No

Text #10
ID                                       : 12
Format                                   : UTF-8
Codec ID                                 : S_TEXT/UTF8
Codec ID/Info                            : UTF-8 Plain Text
Duration                                 : 1 h 8 min
Bit rate                                 : 56 b/s
Count of elements                        : 741
Stream size                              : 28.4 KiB (0%)
Language                                 : Dutch
Default                                  : No
Forced                                   : No

Text #11
ID                                       : 13
Format                                   : UTF-8
Codec ID                                 : S_TEXT/UTF8
Codec ID/Info                            : UTF-8 Plain Text
Duration                                 : 1 h 8 min
Bit rate                                 : 56 b/s
Count of elements                        : 764
Stream size                              : 28.1 KiB (0%)
Language                                 : Estonian
Default                                  : No
Forced                                   : No

Text #12
ID                                       : 14
Format                                   : UTF-8
Codec ID                                 : S_TEXT/UTF8
Codec ID/Info                            : UTF-8 Plain Text
Duration                                 : 1 h 8 min
Bit rate                                 : 59 b/s
Count of elements                        : 802
Stream size                              : 29.5 KiB (0%)
Language                                 : Finnish
Default                                  : No
Forced                                   : No

Text #13
ID                                       : 15
Format                                   : UTF-8
Codec ID                                 : S_TEXT/UTF8
Codec ID/Info                            : UTF-8 Plain Text
Duration                                 : 1 h 8 min
Bit rate                                 : 58 b/s
Count of elements                        : 937
Stream size                              : 29.0 KiB (0%)
Title                                    : French (Canada)
Language                                 : French
Default                                  : No
Forced                                   : No

Text #14
ID                                       : 16
Format                                   : UTF-8
Codec ID                                 : S_TEXT/UTF8
Codec ID/Info                            : UTF-8 Plain Text
Duration                                 : 1 h 8 min
Bit rate                                 : 58 b/s
Count of elements                        : 935
Stream size                              : 29.0 KiB (0%)
Title                                    : French (France)
Language                                 : French
Default                                  : No
Forced                                   : No

Text #15
ID                                       : 17
Format                                   : UTF-8
Codec ID                                 : S_TEXT/UTF8
Codec ID/Info                            : UTF-8 Plain Text
Duration                                 : 1 h 8 min
Bit rate                                 : 63 b/s
Count of elements                        : 792
Stream size                              : 31.6 KiB (0%)
Language                                 : German
Default                                  : No
Forced                                   : No

Text #16
ID                                       : 18
Format                                   : UTF-8
Codec ID                                 : S_TEXT/UTF8
Codec ID/Info                            : UTF-8 Plain Text
Duration                                 : 1 h 8 min
Bit rate                                 : 105 b/s
Count of elements                        : 804
Stream size                              : 52.5 KiB (0%)
Language                                 : Greek
Default                                  : No
Forced                                   : No

Text #17
ID                                       : 19
Format                                   : UTF-8
Codec ID                                 : S_TEXT/UTF8
Codec ID/Info                            : UTF-8 Plain Text
Duration                                 : 1 h 8 min
Bit rate                                 : 79 b/s
Count of elements                        : 817
Stream size                              : 39.6 KiB (0%)
Language                                 : Hebrew
Default                                  : No
Forced                                   : No

Text #18
ID                                       : 20
Format                                   : UTF-8
Codec ID                                 : S_TEXT/UTF8
Codec ID/Info                            : UTF-8 Plain Text
Duration                                 : 1 h 8 min
Bit rate                                 : 163 b/s
Count of elements                        : 819
Stream size                              : 81.4 KiB (0%)
Language                                 : Hindi
Default                                  : No
Forced                                   : No

Text #19
ID                                       : 21
Format                                   : UTF-8
Codec ID                                 : S_TEXT/UTF8
Codec ID/Info                            : UTF-8 Plain Text
Duration                                 : 1 h 8 min
Bit rate                                 : 58 b/s
Count of elements                        : 814
Stream size                              : 29.4 KiB (0%)
Language                                 : Hungarian
Default                                  : No
Forced                                   : No

Text #20
ID                                       : 22
Format                                   : UTF-8
Codec ID                                 : S_TEXT/UTF8
Codec ID/Info                            : UTF-8 Plain Text
Duration                                 : 1 h 8 min
Bit rate                                 : 64 b/s
Count of elements                        : 813
Stream size                              : 32.2 KiB (0%)
Language                                 : Indonesian
Default                                  : No
Forced                                   : No

Text #21
ID                                       : 23
Format                                   : UTF-8
Codec ID                                 : S_TEXT/UTF8
Codec ID/Info                            : UTF-8 Plain Text
Duration                                 : 1 h 8 min
Bit rate                                 : 62 b/s
Count of elements                        : 816
Stream size                              : 31.2 KiB (0%)
Language                                 : Italian
Default                                  : No
Forced                                   : No

Text #22
ID                                       : 24
Format                                   : UTF-8
Codec ID                                 : S_TEXT/UTF8
Codec ID/Info                            : UTF-8 Plain Text
Duration                                 : 1 h 8 min
Bit rate                                 : 53 b/s
Count of elements                        : 851
Stream size                              : 26.5 KiB (0%)
Language                                 : Japanese
Default                                  : No
Forced                                   : No

Text #23
ID                                       : 25
Format                                   : UTF-8
Codec ID                                 : S_TEXT/UTF8
Codec ID/Info                            : UTF-8 Plain Text
Duration                                 : 1 h 8 min
Bit rate                                 : 62 b/s
Count of elements                        : 819
Stream size                              : 31.4 KiB (0%)
Language                                 : Korean
Default                                  : No
Forced                                   : No

Text #24
ID                                       : 26
Format                                   : UTF-8
Codec ID                                 : S_TEXT/UTF8
Codec ID/Info                            : UTF-8 Plain Text
Duration                                 : 1 h 8 min
Bit rate                                 : 62 b/s
Count of elements                        : 808
Stream size                              : 31.0 KiB (0%)
Language                                 : Latvian
Default                                  : No
Forced                                   : No

Text #25
ID                                       : 27
Format                                   : UTF-8
Codec ID                                 : S_TEXT/UTF8
Codec ID/Info                            : UTF-8 Plain Text
Duration                                 : 1 h 8 min
Bit rate                                 : 60 b/s
Count of elements                        : 817
Stream size                              : 30.1 KiB (0%)
Language                                 : Lithuanian
Default                                  : No
Forced                                   : No

Text #26
ID                                       : 28
Format                                   : UTF-8
Codec ID                                 : S_TEXT/UTF8
Codec ID/Info                            : UTF-8 Plain Text
Duration                                 : 1 h 8 min
Bit rate                                 : 60 b/s
Count of elements                        : 813
Stream size                              : 30.0 KiB (0%)
Language                                 : Malay
Default                                  : No
Forced                                   : No

Text #27
ID                                       : 29
Format                                   : UTF-8
Codec ID                                 : S_TEXT/UTF8
Codec ID/Info                            : UTF-8 Plain Text
Duration                                 : 1 h 8 min
Bit rate                                 : 58 b/s
Count of elements                        : 788
Stream size                              : 28.9 KiB (0%)
Language                                 : Norwegian
Default                                  : No
Forced                                   : No

Text #28
ID                                       : 30
Format                                   : UTF-8
Codec ID                                 : S_TEXT/UTF8
Codec ID/Info                            : UTF-8 Plain Text
Duration                                 : 1 h 8 min
Bit rate                                 : 58 b/s
Count of elements                        : 807
Stream size                              : 29.0 KiB (0%)
Language                                 : Polish
Default                                  : No
Forced                                   : No

Text #29
ID                                       : 31
Format                                   : UTF-8
Codec ID                                 : S_TEXT/UTF8
Codec ID/Info                            : UTF-8 Plain Text
Duration                                 : 1 h 8 min
Bit rate                                 : 59 b/s
Count of elements                        : 811
Stream size                              : 29.8 KiB (0%)
Language                                 : Portuguese
Default                                  : No
Forced                                   : No

Text #30
ID                                       : 32
Format                                   : UTF-8
Codec ID                                 : S_TEXT/UTF8
Codec ID/Info                            : UTF-8 Plain Text
Duration                                 : 1 h 8 min
Bit rate                                 : 57 b/s
Count of elements                        : 805
Stream size                              : 28.8 KiB (0%)
Title                                    : Portuguese (Brazil)
Language                                 : Portuguese
Default                                  : No
Forced                                   : No

Text #31
ID                                       : 33
Format                                   : UTF-8
Codec ID                                 : S_TEXT/UTF8
Codec ID/Info                            : UTF-8 Plain Text
Duration                                 : 1 h 7 min
Bit rate                                 : 93 b/s
Count of elements                        : 813
Stream size                              : 46.3 KiB (0%)
Language                                 : Russian
Default                                  : No
Forced                                   : No

Text #32
ID                                       : 34
Format                                   : UTF-8
Codec ID                                 : S_TEXT/UTF8
Codec ID/Info                            : UTF-8 Plain Text
Duration                                 : 1 h 8 min
Bit rate                                 : 56 b/s
Count of elements                        : 812
Stream size                              : 28.1 KiB (0%)
Language                                 : Slovak
Default                                  : No
Forced                                   : No

Text #33
ID                                       : 35
Format                                   : UTF-8
Codec ID                                 : S_TEXT/UTF8
Codec ID/Info                            : UTF-8 Plain Text
Duration                                 : 1 h 8 min
Bit rate                                 : 52 b/s
Count of elements                        : 780
Stream size                              : 26.1 KiB (0%)
Language                                 : Slovenian
Default                                  : No
Forced                                   : No

Text #34
ID                                       : 36
Format                                   : UTF-8
Codec ID                                 : S_TEXT/UTF8
Codec ID/Info                            : UTF-8 Plain Text
Duration                                 : 1 h 8 min
Bit rate                                 : 61 b/s
Count of elements                        : 829
Stream size                              : 30.6 KiB (0%)
Title                                    : Spanish (Latin America)
Language                                 : Spanish
Default                                  : No
Forced                                   : No

Text #35
ID                                       : 37
Format                                   : UTF-8
Codec ID                                 : S_TEXT/UTF8
Codec ID/Info                            : UTF-8 Plain Text
Duration                                 : 1 h 8 min
Bit rate                                 : 59 b/s
Count of elements                        : 818
Stream size                              : 29.9 KiB (0%)
Title                                    : Spanish (Spain)
Language                                 : Spanish
Default                                  : No
Forced                                   : No

Text #36
ID                                       : 38
Format                                   : UTF-8
Codec ID                                 : S_TEXT/UTF8
Codec ID/Info                            : UTF-8 Plain Text
Duration                                 : 1 h 8 min
Bit rate                                 : 60 b/s
Count of elements                        : 796
Stream size                              : 30.0 KiB (0%)
Language                                 : Swedish
Default                                  : No
Forced                                   : No

Text #37
ID                                       : 39
Format                                   : UTF-8
Codec ID                                 : S_TEXT/UTF8
Codec ID/Info                            : UTF-8 Plain Text
Duration                                 : 1 h 8 min
Bit rate                                 : 189 b/s
Count of elements                        : 817
Stream size                              : 94.6 KiB (0%)
Language                                 : Tamil
Default                                  : No
Forced                                   : No

Text #38
ID                                       : 40
Format                                   : UTF-8
Codec ID  
ssl  EZTV RSS EZTV Status | EZTV API | DMCA: [email protected]