eztv.re | Wednesday 27th of October 2021 06:03 AM ET
Search: or 
 

Foundation S01E03 The Mathematicians Ghost 2160p ATVP WEB-DL DDP5 1 HDR HEVC-CasStudio EZTV

Episode Breakdown
Foundation
Foundation TV Show S01E03

Season: 1
Episode: 3
Air Date: 1 October, 2021
Download Links
     Torrent Download     Magnet Download
Added 25 days ago by eztv (verified).
Tracker Statistics
Seeds: 58
Peers: 10
Stats generated @ 06:03 on 27th Oct 2021
Torrent Info
Torrent File: Foundation.S01E03.The.Mathematicians.Ghost.2160p.ATVP.WEB-DL.DDP5.1.HDR.HEVC-CasStudio[eztv.re].mkv
Torrent Hash: BB3EF2BBDBA86D0C791118DDE07DFE47A990EFF2
Filesize: 8.71 GB
Released: 1st Oct 2021

File Format: MKV (Matroska)
Resolution: 720x404 px
Aspect Ratio: 16:9
Alternate Releases S L
Foundation S01E03 1080p WEB H264-CAKES 107 7
Foundation S01E03 480p x264-mSD 59 8
Foundation S01E03 720p HEVC x265-MeGusta 113 10
Foundation S01E03 720p WEB H264-GGWP 274 27
Foundation S01E03 XviD-AFG 78 3
Foundation S01E03 1080p HEVC x265-MeGusta 767 101
Foundation S01E03 The Mathematician’s Ghost 1080p 10bit WEBRip 6CH x265 HEVC-PSA 0 49

Foundation S01E03 - The Mathematician's Ghost

Summary:

Brother Dusk reflects on his legacy as he prepares for ascension. The Foundation arrives on Terminus and finds a mysterious object.



Foundation S01E03 The Mathematicians Ghost 2160p ATVP WEB-DL DDP5 1 HDR HEVC-CasStudio EZTV
Foundation S1E3 Screenshot
https://www.imdb.com/title/tt0804484/



Complete name                            : J:\TORRENT\Foundation.S01E03.The.Mathematicians.Ghost.2160p.ATVP.WEB-DL.DDP5.1.HDR.HEVC-CasStudio.mkv
Format                                   : Matroska
Format version                           : Version 4
File size                                : 8.71 GiB
Duration                                 : 50 min 11 s
Overall bit rate                         : 24.8 Mb/s
Writing application                      : mkvmerge v61.0.0 ('So') 64-bit
Writing library                          : libebml v1.4.2 + libmatroska v1.6.4

Video
ID                                       : 1
Format                                   : HEVC
Format/Info                              : High Efficiency Video Coding
Format profile                           : Main [email protected]@High
HDR format                               : SMPTE ST 2086, HDR10 compatible
Codec ID                                 : V_MPEGH/ISO/HEVC
Duration                                 : 50 min 11 s
Bit rate                                 : 24.1 Mb/s
Width                                    : 3 840 pixels
Height                                   : 1 920 pixels
Display aspect ratio                     : 2.000
Frame rate mode                          : Constant
Frame rate                               : 23.976 (23976/1000) FPS
Color space                              : YUV
Chroma subsampling                       : 4:2:0 (Type 2)
Bit depth                                : 10 bits
Bits/(Pixel*Frame)                       : 0.136
Stream size                              : 8.43 GiB (97%)
Language                                 : English
Default                                  : Yes
Forced                                   : No
Color range                              : Limited
Color primaries                          : BT.2020
Transfer characteristics                 : PQ
Matrix coefficients                      : BT.2020 non-constant
Mastering display color primaries        : Display P3
Mastering display luminance              : min: 0.0050 cd/m2, max: 1000 cd/m2
Maximum Content Light Level              : 1243 cd/m2
Maximum Frame-Average Light Level        : 370 cd/m2

Audio
ID                                       : 2
Format                                   : E-AC-3 JOC
Format/Info                              : Enhanced AC-3 with Joint Object Coding
Commercial name                          : Dolby Digital Plus with Dolby Atmos
Codec ID                                 : A_EAC3
Duration                                 : 50 min 11 s
Bit rate mode                            : Constant
Bit rate                                 : 768 kb/s
Channel(s)                               : 6 channels
Channel layout                           : L R C LFE Ls Rs
Sampling rate                            : 48.0 kHz
Frame rate                               : 31.250 FPS (1536 SPF)
Compression mode                         : Lossy
Stream size                              : 276 MiB (3%)
Language                                 : English
Service kind                             : Complete Main
Default                                  : Yes
Forced                                   : No
Complexity index                         : 16
Number of dynamic objects                : 15
Bed channel count                        : 1 channel
Bed channel configuration                : LFE

Text #1
ID                                       : 3
Format                                   : UTF-8
Codec ID                                 : S_TEXT/UTF8
Codec ID/Info                            : UTF-8 Plain Text
Duration                                 : 49 min 5 s
Bit rate                                 : 49 b/s
Count of elements                        : 515
Stream size                              : 17.8 KiB (0%)
Language                                 : English
Default                                  : No
Forced                                   : No

Text #2
ID                                       : 4
Format                                   : UTF-8
Codec ID                                 : S_TEXT/UTF8
Codec ID/Info                            : UTF-8 Plain Text
Duration                                 : 49 min 5 s
Bit rate                                 : 53 b/s
Count of elements                        : 578
Stream size                              : 19.3 KiB (0%)
Title                                    : English (SDH)
Language                                 : English
Default                                  : No
Forced                                   : No

Text #3
ID                                       : 5
Format                                   : UTF-8
Codec ID                                 : S_TEXT/UTF8
Codec ID/Info                            : UTF-8 Plain Text
Duration                                 : 50 min 6 s
Bit rate                                 : 68 b/s
Count of elements                        : 526
Stream size                              : 25.3 KiB (0%)
Language                                 : Arabic
Default                                  : No
Forced                                   : No

Text #4
ID                                       : 6
Format                                   : UTF-8
Codec ID                                 : S_TEXT/UTF8
Codec ID/Info                            : UTF-8 Plain Text
Duration                                 : 50 min 6 s
Bit rate                                 : 74 b/s
Count of elements                        : 500
Stream size                              : 27.4 KiB (0%)
Language                                 : Bulgarian
Default                                  : No
Forced                                   : No

Text #5
ID                                       : 7
Format                                   : UTF-8
Codec ID                                 : S_TEXT/UTF8
Codec ID/Info                            : UTF-8 Plain Text
Duration                                 : 50 min 6 s
Bit rate                                 : 46 b/s
Count of elements                        : 528
Stream size                              : 16.9 KiB (0%)
Language                                 : Chinese
Default                                  : No
Forced                                   : No

Text #6
ID                                       : 8
Format                                   : UTF-8
Codec ID                                 : S_TEXT/UTF8
Codec ID/Info                            : UTF-8 Plain Text
Duration                                 : 50 min 6 s
Bit rate                                 : 44 b/s
Count of elements                        : 527
Stream size                              : 16.3 KiB (0%)
Language                                 : Chinese
Default                                  : No
Forced                                   : No

Text #7
ID                                       : 9
Format                                   : UTF-8
Codec ID                                 : S_TEXT/UTF8
Codec ID/Info                            : UTF-8 Plain Text
Duration                                 : 50 min 6 s
Bit rate                                 : 45 b/s
Count of elements                        : 528
Stream size                              : 16.6 KiB (0%)
Language                                 : Chinese
Default                                  : No
Forced                                   : No

Text #8
ID                                       : 10
Format                                   : UTF-8
Codec ID                                 : S_TEXT/UTF8
Codec ID/Info                            : UTF-8 Plain Text
Duration                                 : 50 min 6 s
Bit rate                                 : 45 b/s
Count of elements                        : 510
Stream size                              : 16.7 KiB (0%)
Language                                 : Czech
Default                                  : No
Forced                                   : No

Text #9
ID                                       : 11
Format                                   : UTF-8
Codec ID                                 : S_TEXT/UTF8
Codec ID/Info                            : UTF-8 Plain Text
Duration                                 : 50 min 6 s
Bit rate                                 : 50 b/s
Count of elements                        : 500
Stream size                              : 18.4 KiB (0%)
Language                                 : Danish
Default                                  : No
Forced                                   : No

Text #10
ID                                       : 12
Format                                   : UTF-8
Codec ID                                 : S_TEXT/UTF8
Codec ID/Info                            : UTF-8 Plain Text
Duration                                 : 50 min 6 s
Bit rate                                 : 45 b/s
Count of elements                        : 461
Stream size                              : 16.5 KiB (0%)
Language                                 : Dutch
Default                                  : No
Forced                                   : No

Text #11
ID                                       : 13
Format                                   : UTF-8
Codec ID                                 : S_TEXT/UTF8
Codec ID/Info                            : UTF-8 Plain Text
Duration                                 : 50 min 6 s
Bit rate                                 : 45 b/s
Count of elements                        : 492
Stream size                              : 16.6 KiB (0%)
Language                                 : Estonian
Default                                  : No
Forced                                   : No

Text #12
ID                                       : 14
Format                                   : UTF-8
Codec ID                                 : S_TEXT/UTF8
Codec ID/Info                            : UTF-8 Plain Text
Duration                                 : 50 min 6 s
Bit rate                                 : 47 b/s
Count of elements                        : 525
Stream size                              : 17.6 KiB (0%)
Language                                 : Finnish
Default                                  : No
Forced                                   : No

Text #13
ID                                       : 15
Format                                   : UTF-8
Codec ID                                 : S_TEXT/UTF8
Codec ID/Info                            : UTF-8 Plain Text
Duration                                 : 49 min 35 s
Bit rate                                 : 46 b/s
Count of elements                        : 581
Stream size                              : 16.9 KiB (0%)
Title                                    : French (Canada)
Language                                 : French
Default                                  : No
Forced                                   : No

Text #14
ID                                       : 16
Format                                   : UTF-8
Codec ID                                 : S_TEXT/UTF8
Codec ID/Info                            : UTF-8 Plain Text
Duration                                 : 49 min 35 s
Bit rate                                 : 46 b/s
Count of elements                        : 580
Stream size                              : 16.8 KiB (0%)
Title                                    : French (France)
Language                                 : French
Default                                  : No
Forced                                   : No

Text #15
ID                                       : 17
Format                                   : UTF-8
Codec ID                                 : S_TEXT/UTF8
Codec ID/Info                            : UTF-8 Plain Text
Duration                                 : 50 min 9 s
Bit rate                                 : 51 b/s
Count of elements                        : 486
Stream size                              : 18.7 KiB (0%)
Language                                 : German
Default                                  : No
Forced                                   : No

Text #16
ID                                       : 18
Format                                   : UTF-8
Codec ID                                 : S_TEXT/UTF8
Codec ID/Info                            : UTF-8 Plain Text
Duration                                 : 50 min 6 s
Bit rate                                 : 84 b/s
Count of elements                        : 519
Stream size                              : 30.9 KiB (0%)
Language                                 : Greek
Default                                  : No
Forced                                   : No

Text #17
ID                                       : 19
Format                                   : UTF-8
Codec ID                                 : S_TEXT/UTF8
Codec ID/Info                            : UTF-8 Plain Text
Duration                                 : 50 min 6 s
Bit rate                                 : 65 b/s
Count of elements                        : 527
Stream size                              : 24.2 KiB (0%)
Language                                 : Hebrew
Default                                  : No
Forced                                   : No

Text #18
ID                                       : 20
Format                                   : UTF-8
Codec ID                                 : S_TEXT/UTF8
Codec ID/Info                            : UTF-8 Plain Text
Duration                                 : 50 min 6 s
Bit rate                                 : 133 b/s
Count of elements                        : 528
Stream size                              : 49.1 KiB (0%)
Language                                 : Hindi
Default                                  : No
Forced                                   : No

Text #19
ID                                       : 21
Format                                   : UTF-8
Codec ID                                 : S_TEXT/UTF8
Codec ID/Info                            : UTF-8 Plain Text
Duration                                 : 50 min 6 s
Bit rate                                 : 47 b/s
Count of elements                        : 526
Stream size                              : 17.4 KiB (0%)
Language                                 : Hungarian
Default                                  : No
Forced                                   : No

Text #20
ID                                       : 22
Format                                   : UTF-8
Codec ID                                 : S_TEXT/UTF8
Codec ID/Info                            : UTF-8 Plain Text
Duration                                 : 50 min 6 s
Bit rate                                 : 52 b/s
Count of elements                        : 526
Stream size                              : 19.1 KiB (0%)
Language                                 : Indonesian
Default                                  : No
Forced                                   : No

Text #21
ID                                       : 23
Format                                   : UTF-8
Codec ID                                 : S_TEXT/UTF8
Codec ID/Info                            : UTF-8 Plain Text
Duration                                 : 50 min 8 s
Bit rate                                 : 50 b/s
Count of elements                        : 527
Stream size                              : 18.7 KiB (0%)
Language                                 : Italian
Default                                  : No
Forced                                   : No

Text #22
ID                                       : 24
Format                                   : UTF-8
Codec ID                                 : S_TEXT/UTF8
Codec ID/Info                            : UTF-8 Plain Text
Duration                                 : 50 min 9 s
Bit rate                                 : 42 b/s
Count of elements                        : 547
Stream size                              : 15.7 KiB (0%)
Language                                 : Japanese
Default                                  : No
Forced                                   : No

Text #23
ID                                       : 25
Format                                   : UTF-8
Codec ID                                 : S_TEXT/UTF8
Codec ID/Info                            : UTF-8 Plain Text
Duration                                 : 50 min 6 s
Bit rate                                 : 52 b/s
Count of elements                        : 528
Stream size                              : 19.2 KiB (0%)
Language                                 : Korean
Default                                  : No
Forced                                   : No

Text #24
ID                                       : 26
Format                                   : UTF-8
Codec ID                                 : S_TEXT/UTF8
Codec ID/Info                            : UTF-8 Plain Text
Duration                                 : 50 min 6 s
Bit rate                                 : 49 b/s
Count of elements                        : 509
Stream size                              : 18.1 KiB (0%)
Language                                 : Latvian
Default                                  : No
Forced                                   : No

Text #25
ID                                       : 27
Format                                   : UTF-8
Codec ID                                 : S_TEXT/UTF8
Codec ID/Info                            : UTF-8 Plain Text
Duration                                 : 50 min 6 s
Bit rate                                 : 49 b/s
Count of elements                        : 527
Stream size                              : 18.1 KiB (0%)
Language                                 : Lithuanian
Default                                  : No
Forced                                   : No

Text #26
ID                                       : 28
Format                                   : UTF-8
Codec ID                                 : S_TEXT/UTF8
Codec ID/Info                            : UTF-8 Plain Text
Duration                                 : 50 min 6 s
Bit rate                                 : 48 b/s
Count of elements                        : 527
Stream size                              : 17.6 KiB (0%)
Language                                 : Malay
Default                                  : No
Forced                                   : No

Text #27
ID                                       : 29
Format                                   : UTF-8
Codec ID                                 : S_TEXT/UTF8
Codec ID/Info                            : UTF-8 Plain Text
Duration                                 : 50 min 6 s
Bit rate                                 : 47 b/s
Count of elements                        : 496
Stream size                              : 17.5 KiB (0%)
Language                                 : Norwegian
Default                                  : No
Forced                                   : No

Text #28
ID                                       : 30
Format                                   : UTF-8
Codec ID                                 : S_TEXT/UTF8
Codec ID/Info                            : UTF-8 Plain Text
Duration                                 : 50 min 6 s
Bit rate                                 : 46 b/s
Count of elements                        : 512
Stream size                              : 17.0 KiB (0%)
Language                                 : Polish
Default                                  : No
Forced                                   : No

Text #29
ID                                       : 31
Format                                   : UTF-8
Codec ID                                 : S_TEXT/UTF8
Codec ID/Info                            : UTF-8 Plain Text
Duration                                 : 50 min 6 s
Bit rate                                 : 49 b/s
Count of elements                        : 523
Stream size                              : 18.0 KiB (0%)
Language                                 : Portuguese
Default                                  : No
Forced                                   : No

Text #30
ID                                       : 32
Format                                   : UTF-8
Codec ID                                 : S_TEXT/UTF8
Codec ID/Info                            : UTF-8 Plain Text
Duration                                 : 50 min 6 s
Bit rate                                 : 45 b/s
Count of elements                        : 519
Stream size                              : 16.6 KiB (0%)
Title                                    : Portuguese (Brazil)
Language                                 : Portuguese
Default                                  : No
Forced                                   : No

Text #31
ID                                       : 33
Format                                   : UTF-8
Codec ID                                 : S_TEXT/UTF8
Codec ID/Info                            : UTF-8 Plain Text
Duration                                 : 49 min 12 s
Bit rate                                 : 75 b/s
Count of elements                        : 518
Stream size                              : 27.3 KiB (0%)
Language                                 : Russian
Default                                  : No
Forced                                   : No

Text #32
ID                                       : 34
Format                                   : UTF-8
Codec ID                                 : S_TEXT/UTF8
Codec ID/Info                            : UTF-8 Plain Text
Duration                                 : 50 min 6 s
Bit rate                                 : 45 b/s
Count of elements                        : 524
Stream size                              : 16.7 KiB (0%)
Language                                 : Slovak
Default                                  : No
Forced                                   : No

Text #33
ID                                       : 35
Format                                   : UTF-8
Codec ID                                 : S_TEXT/UTF8
Codec ID/Info                            : UTF-8 Plain Text
Duration                                 : 50 min 6 s
Bit rate                                 : 41 b/s
Count of elements                        : 500
Stream size                              : 15.2 KiB (0%)
Language                                 : Slovenian
Default                                  : No
Forced                                   : No

Text #34
ID                                       : 36
Format                                   : UTF-8
Codec ID                                 : S_TEXT/UTF8
Codec ID/Info                            : UTF-8 Plain Text
Duration                                 : 50 min 6 s
Bit rate                                 : 48 b/s
Count of elements                        : 530
Stream size                              : 17.9 KiB (0%)
Title                                    : Spanish (Latin America)
Language                                 : Spanish
Default                                  : No
Forced                                   : No

Text #35
ID                                       : 37
Format                                   : UTF-8
Codec ID                                 : S_TEXT/UTF8
Codec ID/Info                            : UTF-8 Plain Text
Duration                                 : 50 min 6 s
Bit rate                                 : 48 b/s
Count of elements                        : 526
Stream size                              : 17.9 KiB (0%)
Title                                    : Spanish (Spain)
Language                                 : Spanish
Default                                  : No
Forced                                   : No

Text #36
ID                                       : 38
Format                                   : UTF-8
Codec ID                                 : S_TEXT/UTF8
Codec ID/Info                            : UTF-8 Plain Text
Duration                                 : 50 min 6 s
Bit rate                                 : 50 b/s
Count of elements                        : 524
Stream size                              : 18.5 KiB (0%)
Language                                 : Swedish
Default                                  : No
Forced                                   : No

Text #37
ID                                       : 39
Format                                   : UTF-8
Codec ID                                 : S_TEXT/UTF8
Codec ID/Info                            : UTF-8 Plain Text
Duration                                 : 50 min 6 s
Bit rate                                 : 156 b/s
Count of elements                        : 527
Stream size                              : 57.3 KiB (0%)
Language                                 : Tamil
Default                                  : No
Forced                                   : No

Text #38
ID                                       : 40
Format                     &nbs
ssl  EZTV RSS EZTV Status | EZTV API | DMCA: [email protected]