eztv.re | Wednesday 27th of October 2021 06:18 AM ET
Search: or 
 

Foundation S01E04 Barbarians at the Gate 2160p ATVP WEB-DL DDP5 1 HDR HEVC-CasStudio EZTV

Episode Breakdown
Foundation
Foundation TV Show S01E04

Season: 1
Episode: 4
Air Date: 8 October, 2021
Download Links
     Torrent Download     Magnet Download
Added 18 days ago by eztv (verified).
Tracker Statistics
Seeds: 77
Peers: 6
Stats generated @ 06:18 on 27th Oct 2021
Torrent Info
Torrent File: Foundation.S01E04.Barbarians.at.the.Gate.2160p.ATVP.WEB-DL.DDP5.1.HDR.HEVC-CasStudio[eztv.re].mkv
Torrent Hash: AD464C77955C63F092481B8203130CC81902E5C6
Filesize: 8.07 GB
Released: 8th Oct 2021

File Format: MKV (Matroska)
Resolution: 720x404 px
Aspect Ratio: 16:9
Alternate Releases S L
Foundation S01E04 720p WEB H264-GLHF 271 20
Foundation S01E04 1080p WEB H264-CAKES 666 85
Foundation S01E04 XviD-AFG 65 2
Foundation S01E04 480p x264-mSD 50 4
Foundation S01E04 720p HEVC x265-MeGusta 428 85
Foundation S01E04 480p x264-ZMNT 17 3
Foundation S01E04 720p x265-ZMNT 40 8

Foundation S01E04 - Barbarians at the Gate

Summary:

Salvor faces off with an enemy of the Empire. Brothers Day and Dusk are at odds, while Brother Dawn wrestles with his truth.



Foundation S01E04 Barbarians at the Gate 2160p ATVP WEB-DL DDP5 1 HDR HEVC-CasStudio EZTV
Foundation S1E4 Screenshot
https://www.imdb.com/title/tt0804484/



Complete name                            : J:\TORRENT\Foundation.S01E04.Barbarians.at.the.Gate.2160p.ATVP.WEB-DL.DDP5.1.HDR.HEVC-CasStudio.mkv
Format                                   : Matroska
Format version                           : Version 4
File size                                : 8.07 GiB
Duration                                 : 45 min 47 s
Overall bit rate                         : 25.2 Mb/s
Writing application                      : mkvmerge v61.0.0 ('So') 64-bit
Writing library                          : libebml v1.4.2 + libmatroska v1.6.4

Video
ID                                       : 1
Format                                   : HEVC
Format/Info                              : High Efficiency Video Coding
Format profile                           : Main [email protected]@High
HDR format                               : SMPTE ST 2086, HDR10 compatible
Codec ID                                 : V_MPEGH/ISO/HEVC
Duration                                 : 45 min 47 s
Bit rate                                 : 24.5 Mb/s
Width                                    : 3 840 pixels
Height                                   : 1 920 pixels
Display aspect ratio                     : 2.000
Frame rate mode                          : Constant
Frame rate                               : 23.976 (23976/1000) FPS
Color space                              : YUV
Chroma subsampling                       : 4:2:0 (Type 2)
Bit depth                                : 10 bits
Bits/(Pixel*Frame)                       : 0.138
Stream size                              : 7.83 GiB (97%)
Language                                 : English
Default                                  : Yes
Forced                                   : No
Color range                              : Limited
Color primaries                          : BT.2020
Transfer characteristics                 : PQ
Matrix coefficients                      : BT.2020 non-constant
Mastering display color primaries        : Display P3
Mastering display luminance              : min: 0.0050 cd/m2, max: 1000 cd/m2
Maximum Content Light Level              : 1848 cd/m2
Maximum Frame-Average Light Level        : 340 cd/m2

Audio
ID                                       : 2
Format                                   : E-AC-3 JOC
Format/Info                              : Enhanced AC-3 with Joint Object Coding
Commercial name                          : Dolby Digital Plus with Dolby Atmos
Codec ID                                 : A_EAC3
Duration                                 : 45 min 47 s
Bit rate mode                            : Constant
Bit rate                                 : 768 kb/s
Channel(s)                               : 6 channels
Channel layout                           : L R C LFE Ls Rs
Sampling rate                            : 48.0 kHz
Frame rate                               : 31.250 FPS (1536 SPF)
Compression mode                         : Lossy
Stream size                              : 252 MiB (3%)
Language                                 : English
Service kind                             : Complete Main
Default                                  : Yes
Forced                                   : No
Complexity index                         : 16
Number of dynamic objects                : 15
Bed channel count                        : 1 channel
Bed channel configuration                : LFE

Text #1
ID                                       : 3
Format                                   : UTF-8
Codec ID                                 : S_TEXT/UTF8
Codec ID/Info                            : UTF-8 Plain Text
Duration                                 : 6 min 15 s
Bit rate                                 : 7 b/s
Count of elements                        : 11
Stream size                              : 370 Bytes (0%)
Title                                    : English (Forced)
Language                                 : English
Default                                  : Yes
Forced                                   : Yes

Text #2
ID                                       : 4
Format                                   : UTF-8
Codec ID                                 : S_TEXT/UTF8
Codec ID/Info                            : UTF-8 Plain Text
Duration                                 : 44 min 18 s
Bit rate                                 : 75 b/s
Count of elements                        : 613
Stream size                              : 24.5 KiB (0%)
Language                                 : English
Default                                  : No
Forced                                   : No

Text #3
ID                                       : 5
Format                                   : UTF-8
Codec ID                                 : S_TEXT/UTF8
Codec ID/Info                            : UTF-8 Plain Text
Duration                                 : 44 min 22 s
Bit rate                                 : 78 b/s
Count of elements                        : 651
Stream size                              : 25.7 KiB (0%)
Title                                    : English (SDH)
Language                                 : English
Default                                  : No
Forced                                   : No

Text #4
ID                                       : 6
Format                                   : UTF-8
Codec ID                                 : S_TEXT/UTF8
Codec ID/Info                            : UTF-8 Plain Text
Duration                                 : 45 min 43 s
Bit rate                                 : 104 b/s
Count of elements                        : 613
Stream size                              : 35.0 KiB (0%)
Language                                 : Arabic
Default                                  : No
Forced                                   : No

Text #5
ID                                       : 7
Format                                   : UTF-8
Codec ID                                 : S_TEXT/UTF8
Codec ID/Info                            : UTF-8 Plain Text
Duration                                 : 45 min 43 s
Bit rate                                 : 111 b/s
Count of elements                        : 576
Stream size                              : 37.2 KiB (0%)
Language                                 : Bulgarian
Default                                  : No
Forced                                   : No

Text #6
ID                                       : 8
Format                                   : UTF-8
Codec ID                                 : S_TEXT/UTF8
Codec ID/Info                            : UTF-8 Plain Text
Duration                                 : 45 min 43 s
Bit rate                                 : 66 b/s
Count of elements                        : 616
Stream size                              : 22.1 KiB (0%)
Language                                 : Chinese
Default                                  : No
Forced                                   : No

Text #7
ID                                       : 9
Format                                   : UTF-8
Codec ID                                 : S_TEXT/UTF8
Codec ID/Info                            : UTF-8 Plain Text
Duration                                 : 45 min 43 s
Bit rate                                 : 64 b/s
Count of elements                        : 615
Stream size                              : 21.7 KiB (0%)
Language                                 : Chinese
Default                                  : No
Forced                                   : No

Text #8
ID                                       : 10
Format                                   : UTF-8
Codec ID                                 : S_TEXT/UTF8
Codec ID/Info                            : UTF-8 Plain Text
Duration                                 : 45 min 43 s
Bit rate                                 : 66 b/s
Count of elements                        : 616
Stream size                              : 22.2 KiB (0%)
Language                                 : Chinese
Default                                  : No
Forced                                   : No

Text #9
ID                                       : 11
Format                                   : UTF-8
Codec ID                                 : S_TEXT/UTF8
Codec ID/Info                            : UTF-8 Plain Text
Duration                                 : 45 min 43 s
Bit rate                                 : 68 b/s
Count of elements                        : 581
Stream size                              : 23.0 KiB (0%)
Language                                 : Czech
Default                                  : No
Forced                                   : No

Text #10
ID                                       : 12
Format                                   : UTF-8
Codec ID                                 : S_TEXT/UTF8
Codec ID/Info                            : UTF-8 Plain Text
Duration                                 : 45 min 43 s
Bit rate                                 : 73 b/s
Count of elements                        : 579
Stream size                              : 24.5 KiB (0%)
Language                                 : Danish
Default                                  : No
Forced                                   : No

Text #11
ID                                       : 13
Format                                   : UTF-8
Codec ID                                 : S_TEXT/UTF8
Codec ID/Info                            : UTF-8 Plain Text
Duration                                 : 45 min 43 s
Bit rate                                 : 66 b/s
Count of elements                        : 531
Stream size                              : 22.1 KiB (0%)
Language                                 : Dutch
Default                                  : No
Forced                                   : No

Text #12
ID                                       : 14
Format                                   : UTF-8
Codec ID                                 : S_TEXT/UTF8
Codec ID/Info                            : UTF-8 Plain Text
Duration                                 : 45 min 43 s
Bit rate                                 : 65 b/s
Count of elements                        : 569
Stream size                              : 22.0 KiB (0%)
Language                                 : Estonian
Default                                  : No
Forced                                   : No

Text #13
ID                                       : 15
Format                                   : UTF-8
Codec ID                                 : S_TEXT/UTF8
Codec ID/Info                            : UTF-8 Plain Text
Duration                                 : 45 min 43 s
Bit rate                                 : 70 b/s
Count of elements                        : 614
Stream size                              : 23.6 KiB (0%)
Language                                 : Finnish
Default                                  : No
Forced                                   : No

Text #14
ID                                       : 16
Format                                   : UTF-8
Codec ID                                 : S_TEXT/UTF8
Codec ID/Info                            : UTF-8 Plain Text
Duration                                 : 45 min 12 s
Bit rate                                 : 69 b/s
Count of elements                        : 723
Stream size                              : 23.1 KiB (0%)
Title                                    : French (Canada)
Language                                 : French
Default                                  : No
Forced                                   : No

Text #15
ID                                       : 17
Format                                   : UTF-8
Codec ID                                 : S_TEXT/UTF8
Codec ID/Info                            : UTF-8 Plain Text
Duration                                 : 45 min 12 s
Bit rate                                 : 69 b/s
Count of elements                        : 722
Stream size                              : 23.0 KiB (0%)
Title                                    : French (France)
Language                                 : French
Default                                  : No
Forced                                   : No

Text #16
ID                                       : 18
Format                                   : UTF-8
Codec ID                                 : S_TEXT/UTF8
Codec ID/Info                            : UTF-8 Plain Text
Duration                                 : 45 min 43 s
Bit rate                                 : 74 b/s
Count of elements                        : 561
Stream size                              : 24.9 KiB (0%)
Language                                 : German
Default                                  : No
Forced                                   : No

Text #17
ID                                       : 19
Format                                   : UTF-8
Codec ID                                 : S_TEXT/UTF8
Codec ID/Info                            : UTF-8 Plain Text
Duration                                 : 45 min 43 s
Bit rate                                 : 124 b/s
Count of elements                        : 609
Stream size                              : 41.7 KiB (0%)
Language                                 : Greek
Default                                  : No
Forced                                   : No

Text #18
ID                                       : 20
Format                                   : UTF-8
Codec ID                                 : S_TEXT/UTF8
Codec ID/Info                            : UTF-8 Plain Text
Duration                                 : 45 min 43 s
Bit rate                                 : 97 b/s
Count of elements                        : 615
Stream size                              : 32.7 KiB (0%)
Language                                 : Hebrew
Default                                  : No
Forced                                   : No

Text #19
ID                                       : 21
Format                                   : UTF-8
Codec ID                                 : S_TEXT/UTF8
Codec ID/Info                            : UTF-8 Plain Text
Duration                                 : 45 min 43 s
Bit rate                                 : 198 b/s
Count of elements                        : 616
Stream size                              : 66.6 KiB (0%)
Language                                 : Hindi
Default                                  : No
Forced                                   : No

Text #20
ID                                       : 22
Format                                   : UTF-8
Codec ID                                 : S_TEXT/UTF8
Codec ID/Info                            : UTF-8 Plain Text
Duration                                 : 45 min 43 s
Bit rate                                 : 69 b/s
Count of elements                        : 613
Stream size                              : 23.1 KiB (0%)
Language                                 : Hungarian
Default                                  : No
Forced                                   : No

Text #21
ID                                       : 23
Format                                   : UTF-8
Codec ID                                 : S_TEXT/UTF8
Codec ID/Info                            : UTF-8 Plain Text
Duration                                 : 45 min 43 s
Bit rate                                 : 78 b/s
Count of elements                        : 615
Stream size                              : 26.2 KiB (0%)
Language                                 : Indonesian
Default                                  : No
Forced                                   : No

Text #22
ID                                       : 24
Format                                   : UTF-8
Codec ID                                 : S_TEXT/UTF8
Codec ID/Info                            : UTF-8 Plain Text
Duration                                 : 45 min 45 s
Bit rate                                 : 76 b/s
Count of elements                        : 614
Stream size                              : 25.7 KiB (0%)
Language                                 : Italian
Default                                  : No
Forced                                   : No

Text #23
ID                                       : 25
Format                                   : UTF-8
Codec ID                                 : S_TEXT/UTF8
Codec ID/Info                            : UTF-8 Plain Text
Duration                                 : 45 min 45 s
Bit rate                                 : 61 b/s
Count of elements                        : 636
Stream size                              : 20.5 KiB (0%)
Language                                 : Japanese
Default                                  : No
Forced                                   : No

Text #24
ID                                       : 26
Format                                   : UTF-8
Codec ID                                 : S_TEXT/UTF8
Codec ID/Info                            : UTF-8 Plain Text
Duration                                 : 45 min 43 s
Bit rate                                 : 77 b/s
Count of elements                        : 616
Stream size                              : 26.1 KiB (0%)
Language                                 : Korean
Default                                  : No
Forced                                   : No

Text #25
ID                                       : 27
Format                                   : UTF-8
Codec ID                                 : S_TEXT/UTF8
Codec ID/Info                            : UTF-8 Plain Text
Duration                                 : 45 min 43 s
Bit rate                                 : 72 b/s
Count of elements                        : 601
Stream size                              : 24.2 KiB (0%)
Language                                 : Latvian
Default                                  : No
Forced                                   : No

Text #26
ID                                       : 28
Format                                   : UTF-8
Codec ID                                 : S_TEXT/UTF8
Codec ID/Info                            : UTF-8 Plain Text
Duration                                 : 45 min 43 s
Bit rate                                 : 73 b/s
Count of elements                        : 615
Stream size                              : 24.8 KiB (0%)
Language                                 : Lithuanian
Default                                  : No
Forced                                   : No

Text #27
ID                                       : 29
Format                                   : UTF-8
Codec ID                                 : S_TEXT/UTF8
Codec ID/Info                            : UTF-8 Plain Text
Duration                                 : 45 min 43 s
Bit rate                                 : 69 b/s
Count of elements                        : 615
Stream size                              : 23.3 KiB (0%)
Language                                 : Malay
Default                                  : No
Forced                                   : No

Text #28
ID                                       : 30
Format                                   : UTF-8
Codec ID                                 : S_TEXT/UTF8
Codec ID/Info                            : UTF-8 Plain Text
Duration                                 : 45 min 43 s
Bit rate                                 : 69 b/s
Count of elements                        : 576
Stream size                              : 23.1 KiB (0%)
Language                                 : Norwegian
Default                                  : No
Forced                                   : No

Text #29
ID                                       : 31
Format                                   : UTF-8
Codec ID                                 : S_TEXT/UTF8
Codec ID/Info                            : UTF-8 Plain Text
Duration                                 : 45 min 43 s
Bit rate                                 : 68 b/s
Count of elements                        : 604
Stream size                              : 23.0 KiB (0%)
Language                                 : Polish
Default                                  : No
Forced                                   : No

Text #30
ID                                       : 32
Format                                   : UTF-8
Codec ID                                 : S_TEXT/UTF8
Codec ID/Info                            : UTF-8 Plain Text
Duration                                 : 45 min 43 s
Bit rate                                 : 72 b/s
Count of elements                        : 609
Stream size                              : 24.4 KiB (0%)
Language                                 : Portuguese
Default                                  : No
Forced                                   : No

Text #31
ID                                       : 33
Format                                   : UTF-8
Codec ID                                 : S_TEXT/UTF8
Codec ID/Info                            : UTF-8 Plain Text
Duration                                 : 45 min 43 s
Bit rate                                 : 67 b/s
Count of elements                        : 597
Stream size                              : 22.7 KiB (0%)
Title                                    : Portuguese (Brazil)
Language                                 : Portuguese
Default                                  : No
Forced                                   : No

Text #32
ID                                       : 34
Format                                   : UTF-8
Codec ID                                 : S_TEXT/UTF8
Codec ID/Info                            : UTF-8 Plain Text
Duration                                 : 44 min 47 s
Bit rate                                 : 112 b/s
Count of elements                        : 575
Stream size                              : 36.9 KiB (0%)
Language                                 : Russian
Default                                  : No
Forced                                   : No

Text #33
ID                                       : 35
Format                                   : UTF-8
Codec ID                                 : S_TEXT/UTF8
Codec ID/Info                            : UTF-8 Plain Text
Duration                                 : 45 min 43 s
Bit rate                                 : 67 b/s
Count of elements                        : 614
Stream size                              : 22.6 KiB (0%)
Language                                 : Slovak
Default                                  : No
Forced                                   : No

Text #34
ID                                       : 36
Format                                   : UTF-8
Codec ID                                 : S_TEXT/UTF8
Codec ID/Info                            : UTF-8 Plain Text
Duration                                 : 45 min 43 s
Bit rate                                 : 61 b/s
Count of elements                        : 557
Stream size                              : 20.7 KiB (0%)
Language                                 : Slovenian
Default                                  : No
Forced                                   : No

Text #35
ID                                       : 37
Format                                   : UTF-8
Codec ID                                 : S_TEXT/UTF8
Codec ID/Info                            : UTF-8 Plain Text
Duration                                 : 45 min 43 s
Bit rate                                 : 73 b/s
Count of elements                        : 623
Stream size                              : 24.5 KiB (0%)
Title                                    : Spanish (Latin America)
Language                                 : Spanish
Default                                  : No
Forced                                   : No

Text #36
ID                                       : 38
Format                                   : UTF-8
Codec ID                                 : S_TEXT/UTF8
Codec ID/Info                            : UTF-8 Plain Text
Duration                                 : 45 min 43 s
Bit rate                                 : 73 b/s
Count of elements                        : 606
Stream size                              : 24.6 KiB (0%)
Title                                    : Spanish (Spain)
Language                                 : Spanish
Default                                  : No
Forced                                   : No

Text #37
ID                                       : 39
Format                                   : UTF-8
Codec ID                                 : S_TEXT/UTF8
Codec ID/Info                            : UTF-8 Plain Text
Duration                                 : 45 min 43 s
Bit rate                                 : 71 b/s
Count of elements                        : 615
Stream size                              : 24.1 KiB (0%)
Language                                 : Swedish
Default                                  : No
Forced                                   : No

Text #38
ID         &nb
ssl  EZTV RSS EZTV Status | EZTV API | DMCA: [email protected]