eztv.re | Monday 29th of November 2021 07:27 AM ET
Search: or 
 

Hawkeye 2021 S01E01 Never Meet Your Heroes 2160p WEB-DL DDP5 1 Atmos HDR HEVC-TEPES mkv EZTV

Episode Breakdown
Hawkeye
Hawkeye TV Show S01E01

Season: 1
Episode: 1
Air Date: 24 November, 2021
Download Links
     Torrent Download     Magnet Download
Added 4 days ago by eztv (verified).
Tracker Statistics
Seeds: 63
Peers: 15
Stats generated @ 07:27 on 29th Nov 2021
Torrent Info
Torrent File: Hawkeye.2021.S01E01.Never.Meet.Your.Heroes.2160p.WEB-DL.DDP5.1.Atmos.HDR.HEVC-TEPES[eztv.re].mkv
Torrent Hash: B2B5F6E2DE739701E3665B50410892B15B7E4B65
Filesize: 7.42 GB
Released: 24th Nov 2021

File Format: MKV (Matroska)
Resolution: 720x404 px
Aspect Ratio: 16:9
Alternate Releases S L
Hawkeye 2021 S01E01 Never Meet Your Heroes 1080p DSNP WEB-DL DDP5 1 Atmos H 264-EVO 2,184 404
Hawkeye 2021 S01E01 Never Meet Your Heroes 720p DSNP WEBRip DDP5 1 x264-TEPES 361 96
Hawkeye 2021 S01E01 Never Meet Your Heroes 1080p DSNP WEBRip DDP5 1 x264-TEPES 127 22
Hawkeye S01E01 1080p WEB H264-DRYB 84 6
Hawkeye S01E01 1080p HEVC x265-MeGusta 744 257
Hawkeye 2021 S01E01 Never Meet Your Heroes 1080p DSNP WEBRip DD5 1 X 264-EVO 92 23
Hawkeye 2021 S01E01 Never Meet Your Heroes 720p DSNP WEBRip AAC2 0 X 264-EVO 166 49

Hawkeye S01E01 - Never Meet Your Heroes

Summary:

Archer Kate Bishop lands in the middle of a criminal conspiracy, forcing Hawkeye out of retirement.



Hawkeye 2021 S01E01 Never Meet Your Heroes 2160p WEB-DL DDP5 1 Atmos HDR HEVC-TEPES mkv EZTV
Hawkeye S1E1 Screenshot
http://www.imdb.com/title/tt10160804/



Complete name                            : Hawkeye.2021.S01E01.Never.Meet.Your.Heroes.2160p.WEB-DL.DDP5.1.Atmos.HDR.HEVC-TEPES.mkv
Format                                   : Matroska
Format version                           : Version 4
File size                                : 7.42 GiB
Duration                                 : 47 min 24 s
Overall bit rate                         : 22.4 Mb/s
Encoded date                             : UTC 2021-11-24 08:17:58
Writing application                      : mkvmerge v63.0.0 ('Everything') 64-bit
Writing library                          : libebml v1.4.2 + libmatroska v1.6.4

Video
ID                                       : 1
Format                                   : HEVC
Format/Info                              : High Efficiency Video Coding
Format profile                           : Main [email protected]@Main
Codec ID                                 : V_MPEGH/ISO/HEVC
Duration                                 : 47 min 24 s
Bit rate                                 : 21.6 Mb/s
Width                                    : 3 840 pixels
Height                                   : 2 160 pixels
Display aspect ratio                     : 16:9
Frame rate mode                          : Constant
Frame rate                               : 24.000 FPS
Color space                              : YUV
Chroma subsampling                       : 4:2:0
Bit depth                                : 10 bits
Bits/(Pixel*Frame)                       : 0.109
Stream size                              : 7.16 GiB (97%)
Writing library                          : x265 3.5:[Linux][GCC 9.3.0][64 bit] 10bit
Default                                  : Yes
Forced                                   : No
Color range                              : Limited
Color primaries                          : BT.2020
Transfer characteristics                 : PQ
Matrix coefficients                      : BT.2020 non-constant

Audio
ID                                       : 2
Format                                   : E-AC-3 JOC
Format/Info                              : Enhanced AC-3 with Joint Object Coding
Commercial name                          : Dolby Digital Plus with Dolby Atmos
Codec ID                                 : A_EAC3
Duration                                 : 47 min 24 s
Bit rate mode                            : Constant
Bit rate                                 : 768 kb/s
Channel(s)                               : 6 channels
Channel layout                           : L R C LFE Ls Rs
Sampling rate                            : 48.0 kHz
Frame rate                               : 31.250 FPS (1536 SPF)
Compression mode                         : Lossy
Stream size                              : 260 MiB (3%)
Language                                 : English
Service kind                             : Complete Main
Default                                  : Yes
Forced                                   : No
Complexity index                         : 16
Number of dynamic objects                : 15
Bed channel count                        : 1 channel
Bed channel configuration                : LFE

Text #1
ID                                       : 3
Format                                   : UTF-8
Codec ID                                 : S_TEXT/UTF8
Codec ID/Info                            : UTF-8 Plain Text
Duration                                 : 43 min 58 s
Bit rate                                 : 47 b/s
Count of elements                        : 492
Stream size                              : 15.4 KiB (0%)
Language                                 : English
Default                                  : No
Forced                                   : No

Text #2
ID                                       : 4
Format                                   : UTF-8
Codec ID                                 : S_TEXT/UTF8
Codec ID/Info                            : UTF-8 Plain Text
Duration                                 : 44 min 51 s
Bit rate                                 : 60 b/s
Count of elements                        : 632
Stream size                              : 20.0 KiB (0%)
Title                                    : SDH
Language                                 : English
Default                                  : No
Forced                                   : No

Text #3
ID                                       : 5
Format                                   : UTF-8
Codec ID                                 : S_TEXT/UTF8
Codec ID/Info                            : UTF-8 Plain Text
Duration                                 : 46 min 24 s
Bit rate                                 : 35 b/s
Count of elements                        : 527
Stream size                              : 12.1 KiB (0%)
Title                                    : Hong Kong
Language                                 : Chinese
Default                                  : No
Forced                                   : No

Text #4
ID                                       : 6
Format                                   : UTF-8
Codec ID                                 : S_TEXT/UTF8
Codec ID/Info                            : UTF-8 Plain Text
Duration                                 : 46 min 24 s
Bit rate                                 : 40 b/s
Count of elements                        : 525
Stream size                              : 13.9 KiB (0%)
Title                                    : Simplified
Language                                 : Chinese
Default                                  : No
Forced                                   : No

Text #5
ID                                       : 7
Format                                   : UTF-8
Codec ID                                 : S_TEXT/UTF8
Codec ID/Info                            : UTF-8 Plain Text
Duration                                 : 46 min 24 s
Bit rate                                 : 35 b/s
Count of elements                        : 527
Stream size                              : 12.1 KiB (0%)
Title                                    : Traditional
Language                                 : Chinese
Default                                  : No
Forced                                   : No

Text #6
ID                                       : 8
Format                                   : UTF-8
Codec ID                                 : S_TEXT/UTF8
Codec ID/Info                            : UTF-8 Plain Text
Duration                                 : 46 min 23 s
Bit rate                                 : 38 b/s
Count of elements                        : 347
Stream size                              : 13.1 KiB (0%)
Language                                 : Danish
Default                                  : No
Forced                                   : No

Text #7
ID                                       : 9
Format                                   : UTF-8
Codec ID                                 : S_TEXT/UTF8
Codec ID/Info                            : UTF-8 Plain Text
Duration                                 : 46 min 24 s
Bit rate                                 : 44 b/s
Count of elements                        : 502
Stream size                              : 15.1 KiB (0%)
Language                                 : German
Default                                  : No
Forced                                   : No

Text #8
ID                                       : 10
Format                                   : UTF-8
Codec ID                                 : S_TEXT/UTF8
Codec ID/Info                            : UTF-8 Plain Text
Duration                                 : 46 min 24 s
Bit rate                                 : 45 b/s
Count of elements                        : 522
Stream size                              : 15.6 KiB (0%)
Language                                 : Spanish
Default                                  : No
Forced                                   : No

Text #9
ID                                       : 11
Format                                   : UTF-8
Codec ID                                 : S_TEXT/UTF8
Codec ID/Info                            : UTF-8 Plain Text
Duration                                 : 46 min 24 s
Bit rate                                 : 48 b/s
Count of elements                        : 524
Stream size                              : 16.5 KiB (0%)
Title                                    : Latin American
Language                                 : Spanish
Default                                  : No
Forced                                   : No

Text #10
ID                                       : 12
Format                                   : UTF-8
Codec ID                                 : S_TEXT/UTF8
Codec ID/Info                            : UTF-8 Plain Text
Duration                                 : 43 min 58 s
Bit rate                                 : 55 b/s
Count of elements                        : 491
Stream size                              : 18.0 KiB (0%)
Title                                    : Latin American
Language                                 : Spanish
Default                                  : No
Forced                                   : No

Text #11
ID                                       : 13
Format                                   : UTF-8
Codec ID                                 : S_TEXT/UTF8
Codec ID/Info                            : UTF-8 Plain Text
Duration                                 : 46 min 24 s
Bit rate                                 : 40 b/s
Count of elements                        : 507
Stream size                              : 13.9 KiB (0%)
Language                                 : French
Default                                  : No
Forced                                   : No

Text #12
ID                                       : 14
Format                                   : UTF-8
Codec ID                                 : S_TEXT/UTF8
Codec ID/Info                            : UTF-8 Plain Text
Duration                                 : 43 min 58 s
Bit rate                                 : 42 b/s
Count of elements                        : 506
Stream size                              : 13.8 KiB (0%)
Title                                    : Canadian
Language                                 : French
Default                                  : No
Forced                                   : No

Text #13
ID                                       : 15
Format                                   : UTF-8
Codec ID                                 : S_TEXT/UTF8
Codec ID/Info                            : UTF-8 Plain Text
Duration                                 : 46 min 24 s
Bit rate                                 : 46 b/s
Count of elements                        : 521
Stream size                              : 15.7 KiB (0%)
Language                                 : Italian
Default                                  : No
Forced                                   : No

Text #14
ID                                       : 16
Format                                   : UTF-8
Codec ID                                 : S_TEXT/UTF8
Codec ID/Info                            : UTF-8 Plain Text
Duration                                 : 46 min 24 s
Bit rate                                 : 38 b/s
Count of elements                        : 505
Stream size                              : 13.2 KiB (0%)
Language                                 : Japanese
Default                                  : No
Forced                                   : No

Text #15
ID                                       : 17
Format                                   : UTF-8
Codec ID                                 : S_TEXT/UTF8
Codec ID/Info                            : UTF-8 Plain Text
Duration                                 : 46 min 31 s
Bit rate                                 : 44 b/s
Count of elements                        : 525
Stream size                              : 15.2 KiB (0%)
Language                                 : Korean
Default                                  : No
Forced                                   : No

Text #16
ID                                       : 18
Format                                   : UTF-8
Codec ID                                 : S_TEXT/UTF8
Codec ID/Info                            : UTF-8 Plain Text
Duration                                 : 46 min 24 s
Bit rate                                 : 40 b/s
Count of elements                        : 473
Stream size                              : 13.8 KiB (0%)
Language                                 : Dutch
Default                                  : No
Forced                                   : No

Text #17
ID                                       : 19
Format                                   : UTF-8
Codec ID                                 : S_TEXT/UTF8
Codec ID/Info                            : UTF-8 Plain Text
Duration                                 : 46 min 24 s
Bit rate                                 : 43 b/s
Count of elements                        : 520
Stream size                              : 14.9 KiB (0%)
Language                                 : Norwegian
Default                                  : No
Forced                                   : No

Text #18
ID                                       : 20
Format                                   : UTF-8
Codec ID                                 : S_TEXT/UTF8
Codec ID/Info                            : UTF-8 Plain Text
Duration                                 : 46 min 24 s
Bit rate                                 : 42 b/s
Count of elements                        : 508
Stream size                              : 14.3 KiB (0%)
Language                                 : Polish
Default                                  : No
Forced                                   : No

Text #19
ID                                       : 21
Format                                   : UTF-8
Codec ID                                 : S_TEXT/UTF8
Codec ID/Info                            : UTF-8 Plain Text
Duration                                 : 46 min 24 s
Bit rate                                 : 47 b/s
Count of elements                        : 515
Stream size                              : 16.3 KiB (0%)
Language                                 : Portuguese
Default                                  : No
Forced                                   : No

Text #20
ID                                       : 22
Format                                   : UTF-8
Codec ID                                 : S_TEXT/UTF8
Codec ID/Info                            : UTF-8 Plain Text
Duration                                 : 46 min 24 s
Bit rate                                 : 46 b/s
Count of elements                        : 523
Stream size                              : 15.9 KiB (0%)
Title                                    : Brazilian
Language                                 : Portuguese
Default                                  : No
Forced                                   : No

Text #21
ID                                       : 23
Format                                   : UTF-8
Codec ID                                 : S_TEXT/UTF8
Codec ID/Info                            : UTF-8 Plain Text
Duration                                 : 47 min 17 s
Bit rate                                 : 60 b/s
Count of elements                        : 674
Stream size                              : 21.1 KiB (0%)
Title                                    : Brazilian
Language                                 : Portuguese
Default                                  : No
Forced                                   : No

Text #22
ID                                       : 24
Format                                   : UTF-8
Codec ID                                 : S_TEXT/UTF8
Codec ID/Info                            : UTF-8 Plain Text
Duration                                 : 46 min 24 s
Bit rate                                 : 41 b/s
Count of elements                        : 520
Stream size                              : 14.2 KiB (0%)
Language                                 : Finnish
Default                                  : No
Forced                                   : No

Text #23
ID                                       : 25
Format                                   : UTF-8
Codec ID                                 : S_TEXT/UTF8
Codec ID/Info                            : UTF-8 Plain Text
Duration                                 : 46 min 24 s
Bit rate                                 : 40 b/s
Count of elements                        : 516
Stream size                              : 13.8 KiB (0%)
Language                                 : Swedish
Default                                  : No
Forced                                   : No







ssl  EZTV RSS EZTV Status | EZTV API | DMCA: [email protected]