eztv.re | Thursday 7th of July 2022 03:50 AM ET
Search title:  
 

Obi-Wan Kenobi S01E02 2160p DSNP WEB-DL DDP5 1 Atmos DV MP4 x265-DVSUX EZTV

Episode Breakdown
Obi-Wan Kenobi
Obi-Wan Kenobi TV Show S01E02

Season: 1
Episode: 2
Air Date: 27 May, 2022
Download Links
     Torrent Download     Magnet Download
     Anonymous Download
Added 1 month ago by eztv (verified).
Tracker Statistics
Seeds: 28
Peers: 19
Stats generated @ 03:50 on 7th Jul 2022
Torrent Info
Torrent File: Obi-Wan.Kenobi.S01E02.2160p.DSNP.WEB-DL.DDP5.1.Atmos.DV.MP4.x265-DVSUX[eztv.re].mp4
Torrent Hash: D3E6455F4109DBE654E59F490F85763C4FCDC762
Filesize: 4.30 GB
Released: 27th May 2022

File Format: MP4 (MPEG-4)
Resolution: 720x404 px
Aspect Ratio: 16:9
Alternate Releases S L
Obi-Wan Kenobi S01E02 720p WEB h264-KOGi 36 18
Obi-Wan Kenobi S01E02 1080p WEB h264-KOGi 1,274 309
Obi-Wan Kenobi S01E02 720p HEVC x265-MeGusta 296 64
Obi-Wan Kenobi S01E02 480p x264-mSD 43 36
Obi-Wan Kenobi S01E02 XviD-AFG 39 17
Obi-Wan Kenobi S01E02 1080p DSNP WEBRip DDP5 1 x264-NTb 73 19
Obi-Wan Kenobi S01E02 HDR 2160p WEB h265-KOGi [NO RAR] 72 19

Obi-Wan Kenobi S01E02 - Part II

Summary:

On a dangerous crime-ridden world, Obi-Wan becomes a target.



Obi-Wan Kenobi S1E2 Part II
Obi-Wan Kenobi S1E2 Screenshot


Obi-Wan Kenobi S01E02 (2022)



General

Complete name : Obi-Wan.Kenobi.S01E02.2160p.DSNP.WEB-DL.DDP5.1.Atmos.DV.MP4.x265-DVSUX.mp4
Format : MPEG-4
Format profile : Base Media / Version 2
Codec ID : mp42 (isom/mp42/dby1)
File size : 4.30 GiB
Duration : 38 min 42 s
Overall bit rate mode : Variable
Overall bit rate : 15.9 Mb/s
Encoded date : UTC 2022-05-27 04:48:27
Tagged date : UTC 2022-05-27 04:48:27

Video
ID : 1
Format : HEVC
Format/Info : High Efficiency Video Coding
Format profile : Main [email protected]@High
HDR format : Dolby Vision, Version 1.0, dvhe.05.06, BL+RPU
Codec ID : dvhe
Codec ID/Info : High Efficiency Video Coding with Dolby Vision
Duration : 38 min 42 s
Bit rate : 15.1 Mb/s
Width : 3 840 pixels
Height : 2 160 pixels
Display aspect ratio : 16:9
Frame rate mode : Constant
Frame rate : 24.000 FPS
Color space : YUV
Chroma subsampling : 4:2:0
Bit depth : 10 bits
Bits/(Pixel*Frame) : 0.076
Stream size : 4.09 GiB (95%)
Default : Yes
Alternate group : 1
Encoded date : UTC 2022-05-27 04:48:15
Tagged date : UTC 2022-05-27 04:48:30
Color range : Full
Codec configuration box : hvcC+dvcC

Audio
ID : 2
Format : E-AC-3 JOC
Format/Info : Enhanced AC-3 with Joint Object Coding
Commercial name : Dolby Digital Plus with Dolby Atmos
Codec ID : ec-3
Duration : 38 min 42 s
Bit rate mode : Constant
Bit rate : 768 kb/s
Maximum bit rate : 811 kb/s
Channel(s) : 6 channels
Channel layout : L R C LFE Ls Rs
Sampling rate : 48.0 kHz
Frame rate : 31.250 FPS (1536 SPF)
Compression mode : Lossy
Stream size : 213 MiB (5%)
Title : English
Language : English
Service kind : Complete Main
Default : Yes
Alternate group : 1
Tagged date : UTC 2022-05-27 04:48:30
Complexity index : Not present / 16
Number of dynamic objects : 15
Bed channel count : 1 channel
Bed channel configuration : LFE

Text #1
ID : 3
Format : Timed Text
Codec ID : tx3g
Duration : 34 min 53 s
Bit rate mode : Variable
Bit rate : 64 b/s
Stream size : 16.3 KiB (0%)
Title : English
Language : English
Forced : No
Encoded date : UTC 2022-05-27 04:48:29
Tagged date : UTC 2022-05-27 04:48:30

Text #2
ID : 4
Format : Timed Text
Codec ID : tx3g
Duration : 38 min 33 s
Bit rate mode : Variable
Bit rate : 43 b/s
Stream size : 12.0 KiB (0%)
Title : Chinese-Cantonese
Language : Chinese
Forced : No
Encoded date : UTC 2022-05-27 04:48:29
Tagged date : UTC 2022-05-27 04:48:30

Text #3
ID : 5
Format : Timed Text
Codec ID : tx3g
Duration : 38 min 33 s
Bit rate mode : Variable
Bit rate : 41 b/s
Stream size : 11.5 KiB (0%)
Title : Chinese-Simplified
Language : Chinese
Forced : No
Encoded date : UTC 2022-05-27 04:48:29
Tagged date : UTC 2022-05-27 04:48:30

Text #4
ID : 6
Format : Timed Text
Codec ID : tx3g
Duration : 38 min 33 s
Bit rate mode : Variable
Bit rate : 37 b/s
Stream size : 10.6 KiB (0%)
Title : Chinese-Traditional
Language : Chinese
Forced : No
Encoded date : UTC 2022-05-27 04:48:29
Tagged date : UTC 2022-05-27 04:48:30

Text #5
ID : 7
Format : Timed Text
Codec ID : tx3g
Duration : 38 min 33 s
Bit rate mode : Variable
Bit rate : 46 b/s
Stream size : 13.0 KiB (0%)
Title : Czech
Language : Czech
Forced : No
Encoded date : UTC 2022-05-27 04:48:29
Tagged date : UTC 2022-05-27 04:48:30

Text #6
ID : 8
Format : Timed Text
Codec ID : tx3g
Duration : 38 min 33 s
Bit rate mode : Variable
Bit rate : 42 b/s
Stream size : 11.9 KiB (0%)
Title : Danish
Language : Danish
Forced : No
Encoded date : UTC 2022-05-27 04:48:29
Tagged date : UTC 2022-05-27 04:48:30

Text #7
ID : 9
Format : Timed Text
Codec ID : tx3g
Duration : 38 min 33 s
Bit rate mode : Variable
Bit rate : 42 b/s
Stream size : 12.0 KiB (0%)
Title : Dutch
Language : Dutch
Forced : No
Encoded date : UTC 2022-05-27 04:48:29
Tagged date : UTC 2022-05-27 04:48:30

Text #8
ID : 10
Format : Timed Text
Codec ID : tx3g
Duration : 38 min 33 s
Bit rate mode : Variable
Bit rate : 48 b/s
Stream size : 13.6 KiB (0%)
Title : Finnish
Language : Finnish
Forced : No
Encoded date : UTC 2022-05-27 04:48:29
Tagged date : UTC 2022-05-27 04:48:30

Text #9
ID : 11
Format : Timed Text
Codec ID : tx3g
Duration : 34 min 28 s
Bit rate mode : Variable
Bit rate : 51 b/s
Stream size : 12.9 KiB (0%)
Title : French
Language : French
Forced : No
Encoded date : UTC 2022-05-27 04:48:29
Tagged date : UTC 2022-05-27 04:48:30

Text #10
ID : 12
Format : Timed Text
Codec ID : tx3g
Duration : 34 min 57 s
Bit rate mode : Variable
Bit rate : 49 b/s
Stream size : 12.6 KiB (0%)
Title : French
Language : French
Forced : No
Encoded date : UTC 2022-05-27 04:48:29
Tagged date : UTC 2022-05-27 04:48:30

Text #11
ID : 13
Format : Timed Text
Codec ID : tx3g
Duration : 38 min 33 s
Bit rate mode : Variable
Bit rate : 51 b/s
Stream size : 14.5 KiB (0%)
Title : German
Language : German
Forced : No
Encoded date : UTC 2022-05-27 04:48:30
Tagged date : UTC 2022-05-27 04:48:30

Text #12
ID : 14
Format : Timed Text
Codec ID : tx3g
Duration : 38 min 33 s
Bit rate mode : Variable
Bit rate : 77 b/s
Stream size : 21.8 KiB (0%)
Title : Greek
Language : Greek
Forced : No
Encoded date : UTC 2022-05-27 04:48:30
Tagged date : UTC 2022-05-27 04:48:30

Text #13
ID : 15
Format : Timed Text
Codec ID : tx3g
Duration : 38 min 33 s
Bit rate mode : Variable
Bit rate : 46 b/s
Stream size : 12.9 KiB (0%)
Title : Hungarian
Language : Hungarian
Forced : No
Encoded date : UTC 2022-05-27 04:48:30
Tagged date : UTC 2022-05-27 04:48:30

Text #14
ID : 16
Format : Timed Text
Codec ID : tx3g
Duration : 38 min 33 s
Bit rate mode : Variable
Bit rate : 48 b/s
Stream size : 13.5 KiB (0%)
Title : Italian
Language : Italian
Forced : No
Encoded date : UTC 2022-05-27 04:48:30
Tagged date : UTC 2022-05-27 04:48:30

Text #15
ID : 17
Format : Timed Text
Codec ID : tx3g
Duration : 38 min 33 s
Bit rate mode : Variable
Bit rate : 43 b/s
Stream size : 12.3 KiB (0%)
Title : Japanese
Language : Japanese
Forced : No
Encoded date : UTC 2022-05-27 04:48:30
Tagged date : UTC 2022-05-27 04:48:30

Text #16
ID : 18
Format : Timed Text
Codec ID : tx3g
Duration : 38 min 33 s
Bit rate mode : Variable
Bit rate : 50 b/s
Stream size : 14.1 KiB (0%)
Title : Korean
Language : Korean
Forced : No
Encoded date : UTC 2022-05-27 04:48:30
Tagged date : UTC 2022-05-27 04:48:30

Text #17
ID : 19
Format : Timed Text
Codec ID : tx3g
Duration : 38 min 33 s
Bit rate mode : Variable
Bit rate : 43 b/s
Stream size : 12.3 KiB (0%)
Title : Norwegian
Language : Norwegian
Forced : No
Encoded date : UTC 2022-05-27 04:48:30
Tagged date : UTC 2022-05-27 04:48:30

Text #18
ID : 20
Format : Timed Text
Codec ID : tx3g
Duration : 38 min 33 s
Bit rate mode : Variable
Bit rate : 45 b/s
Stream size : 12.7 KiB (0%)
Title : Polish
Language : Polish
Forced : No
Encoded date : UTC 2022-05-27 04:48:30
Tagged date : UTC 2022-05-27 04:48:30

Text #19
ID : 21
Format : Timed Text
Codec ID : tx3g
Duration : 38 min 33 s
Bit rate mode : Variable
Bit rate : 50 b/s
Stream size : 14.0 KiB (0%)
Title : Portuguese
Language : Portuguese
Forced : No
Encoded date : UTC 2022-05-27 04:48:30
Tagged date : UTC 2022-05-27 04:48:30

Text #20
ID : 22
Format : Timed Text
Codec ID : tx3g
Duration : 38 min 33 s
Bit rate mode : Variable
Bit rate : 46 b/s
Stream size : 12.9 KiB (0%)
Title : Portuguese
Language : Portuguese
Forced : No
Encoded date : UTC 2022-05-27 04:48:30
Tagged date : UTC 2022-05-27 04:48:30

Text #21
ID : 23
Format : Timed Text
Codec ID : tx3g
Duration : 38 min 33 s
Bit rate mode : Variable
Bit rate : 47 b/s
Stream size : 13.3 KiB (0%)
Title : Romanian
Language : Romanian
Forced : No
Encoded date : UTC 2022-05-27 04:48:30
Tagged date : UTC 2022-05-27 04:48:30

Text #22
ID : 24
Format : Timed Text
Codec ID : tx3g
Duration : 38 min 33 s
Bit rate mode : Variable
Bit rate : 46 b/s
Stream size : 13.0 KiB (0%)
Title : Slovak
Language : Slovak
Forced : No
Encoded date : UTC 2022-05-27 04:48:30
Tagged date : UTC 2022-05-27 04:48:30

Text #23
ID : 25
Format : Timed Text
Codec ID : tx3g
Duration : 38 min 33 s
Bit rate mode : Variable
Bit rate : 5 b/s
Stream size : 1.37 KiB (0%)
Title : Spanish-EU
Language : Spanish
Forced : No
Encoded date : UTC 2022-05-27 04:48:30
Tagged date : UTC 2022-05-27 04:48:30

Text #24
ID : 26
Format : Timed Text
Codec ID : tx3g
Duration : 38 min 33 s
Bit rate mode : Variable
Bit rate : 47 b/s
Stream size : 13.2 KiB (0%)
Title : Spanish-EU
Language : Spanish
Forced : No
Encoded date : UTC 2022-05-27 04:48:30
Tagged date : UTC 2022-05-27 04:48:30

Text #25
ID : 27
Format : Timed Text
Codec ID : tx3g
Duration : 38 min 33 s
Bit rate mode : Variable
Bit rate : 46 b/s
Stream size : 13.1 KiB (0%)
Title : Swedish
Language : Swedish
Forced : No
Encoded date : UTC 2022-05-27 04:48:30
Tagged date : UTC 2022-05-27 04:48:30

Text #26
ID : 28
Format : Timed Text
Codec ID : tx3g
Duration : 38 min 33 s
Bit rate mode : Variable
Bit rate : 50 b/s
Stream size : 14.0 KiB (0%)
Title : Turkish
Language : Turkish
Forced : No
Encoded date : UTC 2022-05-27 04:48:30
Tagged date : UTC 2022-05-27 04:48:30

Source - DVSUX
Shared By - Will1869

https://www.imdb.com/title/tt8466564/



Stars: Ewan McGregor, Hayden Christensen, Vivien Lyra Blair
   


Jedi Master Obi-Wan Kenobi watches over young Luke Skywalker and evades the Empire's elite Jedi hunters during his exile on the desert planet Tatooine.





















Press Here to add Rep point
ssl  EZTV RSS EZTV Status | EZTV API | DMCA: [email protected]