eztv.re | Monday 4th of July 2022 09:15 AM ET
Search title:  
 

Obi-Wan Kenobi S01E04 DV 2160p WEB h265-KOGi EZTV

Episode Breakdown
Obi-Wan Kenobi
Obi-Wan Kenobi TV Show S01E04

Season: 1
Episode: 4
Air Date: 8 June, 2022
Download Links
     Torrent Download     Magnet Download
     Anonymous Download
Added 25 days ago by eztv (verified).
Tracker Statistics
Seeds: 56
Peers: 10
Stats generated @ 09:15 on 4th Jul 2022
Torrent Info
Torrent File: Obi-Wan.Kenobi.S01E04.DV.2160p.WEB.h265-KOGi[eztv.re].mkv
Torrent Hash: D67DF2D603C43BD1F6E5525533F691CD8F6FFF54
Filesize: 4.06 GB
Released: 9th Jun 2022

File Format: MKV (Matroska)
Resolution: 720x404 px
Aspect Ratio: 16:9
Alternate Releases S L
Obi-Wan Kenobi S01E04 720p WEB h264-KOGi 121 9
Obi-Wan Kenobi S01E04 1080p WEB h264-KOGi 529 38
Obi-Wan Kenobi S01E04 480p x264-mSD 52 6
Obi-Wan Kenobi S01E04 720p HEVC x265-MeGusta 481 193
Obi-Wan Kenobi S01E04 XviD-AFG 50 1
Obi-Wan Kenobi S01E04 1080p WebRip H264 AC3 Will1869 40 3
Obi-Wan Kenobi S01E04 1080p HEVC x265-MeGusta 98 6

Obi-Wan Kenobi S01E04 - Part IV

Summary:

Obi-Wan plots a mission.



Obi-Wan Kenobi S01E04 DV 2160p WEB h265-KOGi EZTV
Obi-Wan Kenobi S1E4 Screenshot


Obi-Wan Kenobi S01E04 (2022)



General

Complete name : Obi-Wan.Kenobi.S01E04.DV.2160p.WEB.h265-KOGi.mkv
Format : Matroska
Format version : Version 4
File size : 4.06 GiB
Duration : 36 min 20 s
Overall bit rate : 16.0 Mb/s
Writing application : mkvmerge v67.0.0 ('Under Stars') 64-bit
Writing library : libebml v1.4.2 + libmatroska v1.6.4

Video
ID : 1
Format : HEVC
Format/Info : High Efficiency Video Coding
Format profile : Main [email protected]@High
HDR format : Dolby Vision, Version 1.0, dvhe.05.06, BL+RPU
Codec ID : V_MPEGH/ISO/HEVC
Duration : 36 min 20 s
Bit rate : 15.2 Mb/s
Width : 3 840 pixels
Height : 2 160 pixels
Display aspect ratio : 16:9
Frame rate mode : Constant
Frame rate : 24.000 FPS
Color space : YUV
Chroma subsampling : 4:2:0
Bit depth : 10 bits
Bits/(Pixel*Frame) : 0.077
Stream size : 3.87 GiB (95%)
Language : English
Default : Yes
Forced : No
Color range : Full

Audio
ID : 2
Format : E-AC-3 JOC
Format/Info : Enhanced AC-3 with Joint Object Coding
Commercial name : Dolby Digital Plus with Dolby Atmos
Codec ID : A_EAC3
Duration : 36 min 20 s
Bit rate mode : Constant
Bit rate : 768 kb/s
Channel(s) : 6 channels
Channel layout : L R C LFE Ls Rs
Sampling rate : 48.0 kHz
Frame rate : 31.250 FPS (1536 SPF)
Compression mode : Lossy
Stream size : 200 MiB (5%)
Language : English
Service kind : Complete Main
Default : Yes
Forced : No
Complexity index : 16
Number of dynamic objects : 15
Bed channel count : 1 channel
Bed channel configuration : LFE

Text #1
ID : 3
Format : UTF-8
Codec ID : S_TEXT/UTF8
Codec ID/Info : UTF-8 Plain Text
Duration : 32 min 37 s
Bit rate : 43 b/s
Count of elements : 372
Stream size : 10.5 KiB (0%)
Title : English (SDH)
Language : English
Default : No
Forced : No

Text #2
ID : 4
Format : UTF-8
Codec ID : S_TEXT/UTF8
Codec ID/Info : UTF-8 Plain Text
Duration : 36 min 10 s
Bit rate : 31 b/s
Count of elements : 303
Stream size : 8.34 KiB (0%)
Title : Čeština
Language : Czech
Default : No
Forced : No

Text #3
ID : 5
Format : UTF-8
Codec ID : S_TEXT/UTF8
Codec ID/Info : UTF-8 Plain Text
Duration : 36 min 10 s
Bit rate : 31 b/s
Count of elements : 238
Stream size : 8.33 KiB (0%)
Title : Dansk
Language : Danish
Default : No
Forced : No

Text #4
ID : 6
Format : UTF-8
Codec ID : S_TEXT/UTF8
Codec ID/Info : UTF-8 Plain Text
Duration : 36 min 10 s
Bit rate : 36 b/s
Count of elements : 322
Stream size : 9.57 KiB (0%)
Title : Deutsch
Language : German
Default : No
Forced : No

Text #5
ID : 7
Format : UTF-8
Codec ID : S_TEXT/UTF8
Codec ID/Info : UTF-8 Plain Text
Duration : 36 min 10 s
Bit rate : 58 b/s
Count of elements : 303
Stream size : 15.4 KiB (0%)
Title : Greek
Language : Greek
Default : No
Forced : No

Text #6
ID : 8
Format : UTF-8
Codec ID : S_TEXT/UTF8
Codec ID/Info : UTF-8 Plain Text
Duration : 36 min 10 s
Bit rate : 33 b/s
Count of elements : 303
Stream size : 9.00 KiB (0%)
Title : Español (Latinoamericano)
Language : Spanish
Default : No
Forced : No

Text #7
ID : 9
Format : UTF-8
Codec ID : S_TEXT/UTF8
Codec ID/Info : UTF-8 Plain Text
Duration : 36 min 10 s
Bit rate : 33 b/s
Count of elements : 303
Stream size : 8.97 KiB (0%)
Title : Español
Language : Spanish
Default : No
Forced : No

Text #8
ID : 10
Format : UTF-8
Codec ID : S_TEXT/UTF8
Codec ID/Info : UTF-8 Plain Text
Duration : 36 min 10 s
Bit rate : 34 b/s
Count of elements : 302
Stream size : 9.02 KiB (0%)
Title : Suomi
Language : Finnish
Default : No
Forced : No

Text #9
ID : 11
Format : UTF-8
Codec ID : S_TEXT/UTF8
Codec ID/Info : UTF-8 Plain Text
Duration : 36 min 10 s
Bit rate : 32 b/s
Count of elements : 331
Stream size : 8.66 KiB (0%)
Title : Français
Language : French
Default : No
Forced : No

Text #10
ID : 12
Format : UTF-8
Codec ID : S_TEXT/UTF8
Codec ID/Info : UTF-8 Plain Text
Duration : 31 min 8 s
Bit rate : 37 b/s
Count of elements : 330
Stream size : 8.57 KiB (0%)
Title : Français (Canadien)
Language : French
Default : No
Forced : No

Text #11
ID : 13
Format : UTF-8
Codec ID : S_TEXT/UTF8
Codec ID/Info : UTF-8 Plain Text
Duration : 36 min 10 s
Bit rate : 32 b/s
Count of elements : 303
Stream size : 8.61 KiB (0%)
Title : Magyar
Language : Hungarian
Default : No
Forced : No

Text #12
ID : 14
Format : UTF-8
Codec ID : S_TEXT/UTF8
Codec ID/Info : UTF-8 Plain Text
Duration : 36 min 10 s
Bit rate : 34 b/s
Count of elements : 303
Stream size : 9.07 KiB (0%)
Title : Italiano
Language : Italian
Default : No
Forced : No

Text #13
ID : 15
Format : UTF-8
Codec ID : S_TEXT/UTF8
Codec ID/Info : UTF-8 Plain Text
Duration : 36 min 10 s
Bit rate : 31 b/s
Count of elements : 308
Stream size : 8.24 KiB (0%)
Title : Japanese
Language : Japanese
Default : No
Forced : No

Text #14
ID : 16
Format : UTF-8
Codec ID : S_TEXT/UTF8
Codec ID/Info : UTF-8 Plain Text
Duration : 36 min 10 s
Bit rate : 36 b/s
Count of elements : 304
Stream size : 9.66 KiB (0%)
Title : Korean
Language : Korean
Default : No
Forced : No

Text #15
ID : 17
Format : UTF-8
Codec ID : S_TEXT/UTF8
Codec ID/Info : UTF-8 Plain Text
Duration : 36 min 10 s
Bit rate : 32 b/s
Count of elements : 283
Stream size : 8.56 KiB (0%)
Title : Nederlands
Language : Dutch
Default : No
Forced : No

Text #16
ID : 18
Format : UTF-8
Codec ID : S_TEXT/UTF8
Codec ID/Info : UTF-8 Plain Text
Duration : 36 min 10 s
Bit rate : 30 b/s
Count of elements : 303
Stream size : 8.19 KiB (0%)
Title : Norsk
Language : Norwegian
Default : No
Forced : No

Text #17
ID : 19
Format : UTF-8
Codec ID : S_TEXT/UTF8
Codec ID/Info : UTF-8 Plain Text
Duration : 36 min 10 s
Bit rate : 31 b/s
Count of elements : 302
Stream size : 8.41 KiB (0%)
Title : Polski
Language : Polish
Default : No
Forced : No

Text #18
ID : 20
Format : UTF-8
Codec ID : S_TEXT/UTF8
Codec ID/Info : UTF-8 Plain Text
Duration : 36 min 10 s
Bit rate : 36 b/s
Count of elements : 303
Stream size : 9.56 KiB (0%)
Title : Português (Brasil)
Language : Portuguese
Default : No
Forced : No

Text #19
ID : 21
Format : UTF-8
Codec ID : S_TEXT/UTF8
Codec ID/Info : UTF-8 Plain Text
Duration : 36 min 10 s
Bit rate : 31 b/s
Count of elements : 303
Stream size : 8.37 KiB (0%)
Title : Português
Language : Portuguese
Default : No
Forced : No

Text #20
ID : 22
Format : UTF-8
Codec ID : S_TEXT/UTF8
Codec ID/Info : UTF-8 Plain Text
Duration : 36 min 10 s
Bit rate : 32 b/s
Count of elements : 304
Stream size : 8.69 KiB (0%)
Title : Română
Language : Romanian
Default : No
Forced : No

Text #21
ID : 23
Format : UTF-8
Codec ID : S_TEXT/UTF8
Codec ID/Info : UTF-8 Plain Text
Duration : 36 min 10 s
Bit rate : 32 b/s
Count of elements : 302
Stream size : 8.60 KiB (0%)
Title : Slovenčina
Language : Slovak
Default : No
Forced : No

Text #22
ID : 24
Format : UTF-8
Codec ID : S_TEXT/UTF8
Codec ID/Info : UTF-8 Plain Text
Duration : 36 min 10 s
Bit rate : 31 b/s
Count of elements : 260
Stream size : 8.37 KiB (0%)
Title : Svenska
Language : Swedish
Default : No
Forced : No

Text #23
ID : 25
Format : UTF-8
Codec ID : S_TEXT/UTF8
Codec ID/Info : UTF-8 Plain Text
Duration : 36 min 10 s
Bit rate : 34 b/s
Count of elements : 304
Stream size : 9.27 KiB (0%)
Title : Türkçe
Language : Turkish
Default : No
Forced : No

Text #24
ID : 26
Format : UTF-8
Codec ID : S_TEXT/UTF8
Codec ID/Info : UTF-8 Plain Text
Duration : 36 min 10 s
Bit rate : 29 b/s
Count of elements : 305
Stream size : 7.88 KiB (0%)
Title : Chinese (Simplified)
Language : Chinese
Default : No
Forced : No

Text #25
ID : 27
Format : UTF-8
Codec ID : S_TEXT/UTF8
Codec ID/Info : UTF-8 Plain Text
Duration : 36 min 10 s
Bit rate : 29 b/s
Count of elements : 305
Stream size : 7.87 KiB (0%)
Title : Chinese (Hong Kong)
Language : Chinese
Default : No
Forced : No

Text #26
ID : 28
Format : UTF-8
Codec ID : S_TEXT/UTF8
Codec ID/Info : UTF-8 Plain Text
Duration : 36 min 10 s
Bit rate : 26 b/s
Count of elements : 305
Stream size : 7.02 KiB (0%)
Title : Chinese (Traditional)
Language : Chinese
Default : No
Forced : No

Source - Kogi
Shared By - Will1869

https://www.imdb.com/title/tt8466564/



Stars: Ewan McGregor, Hayden Christensen, Vivien Lyra Blair
   


Jedi Master Obi-Wan Kenobi watches over young Luke Skywalker and evades the Empire's elite Jedi hunters during his exile on the desert planet Tatooine.



SCREENS TAKEN IN RUTORRENT THEY WONT SHOW TRUE COLOURS
YOU NEED A DOLBY VISION TV



















Press Here to add Rep point
ssl  EZTV RSS EZTV Status | EZTV API | DMCA: [email protected]