eztv.re | Saturday 1st of April 2023 07:32 AM ET
Search title:  
 

Your Honor US S02E02 2160p PMTP WEB-DL x265 10bit HDR10Plus DDP5 1 x265-NTb EZTV

Episode Breakdown
Your Honor
Your Honor TV Show S02E02

Season: 2
Episode: 2
Air Date: 20 January, 2023
Download Links
     Torrent Download     Magnet Download
     Anonymous Download
Added 1 month ago by eztv (verified).
Tracker Statistics
Seeds: 0
Peers: 0
Stats generated @ 07:32 on 1st Apr 2023
Torrent Info
Torrent File: Your.Honor.US.S02E02.Part.Twelve.2160p.PMTP.WEB-DL.DDP5.1.HDR.H.265-NTb[eztv.re].mkv
Torrent Hash: A30A1B92559741B656F5FC79011A073A971AB0BF
Filesize: 4.95 GB
Released: 4th Feb 2023

File Format: MKV (Matroska)
Resolution: 720x404 px
Aspect Ratio: 16:9
Alternate Releases S L
Your Honor S02E02 1080p WEB H264-CAKES 17 1
Your Honor S02E02 XviD-AFG 20 0
Your Honor S02E02 1080p HEVC x265-MeGusta 78 13
Your Honor S02E02 720p WEB h264-KOGi 6 2
Your Honor S02E02 720p HEVC x265-MeGusta 7 0
Your Honor S02E02 480p x264-mSD 7 0
Your Honor S02E02 MULTI 1080p WEB H264-HiggsBoson 10 1

Your Honor S02E02 - Part Twelve

Summary:

Michael Desiato discovers a jaw-dropping secret. Olivia Delmont seizes an opportunity to push Michael to make a dangerous decision. Meanwhile, a desperate business deal hatched by Little Mo and the Desire Crew threatens Eugene and his low-key life on the run. Elizabeth shelters Michael while Big Mo's big plans place her directly in the crosshairs of Gina.



Your Honor US S02E02 2160p PMTP WEB-DL x265 10bit HDR10Plus DDP5 1 x265-NTb EZTV
Your Honor S2E2 Screenshot
General
Unique ID: 182249538783782418008923889716791765798 (0x891BFC0241E3EA35CD249C100F626B26)
Complete name: Your.Honor.US.S02E02.Part.Twelve.2160p.PMTP.WEB-DL.DDP5.1.HDR.H.265-NTb.mkv
Format: Matroska
Format version: Version 4
File size: 4.95 GiB
Duration: 49 min 52 s
Overall bit rate: 14.2 Mb/s
Writing application: mkvmerge v68.0.0 ('The Curtain') 64-bit
Writing library: libebml v1.4.2 + libmatroska v1.6.4

Video
ID: 1
Format: HEVC
Format/Info: High Efficiency Video Coding
Format profile: Main [email protected]@Main
HDR format: SMPTE ST 2094 App 4, Version 1, HDR10+ Profile B compatible
Codec ID: V_MPEGH/ISO/HEVC
Duration: 49 min 30 s
Bit rate: 13.7 Mb/s
Width: 3 840 pixels
Height: 2 160 pixels
Display aspect ratio: 16:9
Frame rate mode: Constant
Frame rate: 23.976 (24000/1001) FPS
Color space: YUV
Chroma subsampling: 4:2:0 (Type 2)
Bit depth: 10 bits
Bits/(Pixel*Frame): 0.069
Stream size: 4.73 GiB (95%)
Default: Yes
Forced: No
Color range: Limited
Color primaries: BT.2020
Transfer characteristics: PQ
Matrix coefficients: BT.2020 non-constant
Mastering display color primaries: Display P3
Mastering display luminance: min: 0.0001 cd/m2, max: 1000 cd/m2
Maximum Content Light Level: 461 cd/m2
Maximum Frame-Average Light Level: 234 cd/m2

Audio
ID: 2
Format: E-AC-3
Format/Info: Enhanced AC-3
Commercial name: Dolby Digital Plus
Codec ID: A_EAC3
Duration: 49 min 52 s
Bit rate mode: Constant
Bit rate: 640 kb/s
Channel(s): 6 channels
Channel layout: L R C LFE Ls Rs
Sampling rate: 48.0 kHz
Frame rate: 31.250 FPS (1536 SPF)
Compression mode: Lossy
Delay relative to video: 22 ms
Stream size: 228 MiB (5%)
Language: English (US)
Service kind: Complete Main
Default: Yes
Forced: No

Text #1
ID: 3
Format: UTF-8
Codec ID: S_TEXT/UTF8
Codec ID/Info: UTF-8 Plain Text
Duration: 47 min 42 s
Bit rate: 52 b/s
Frame rate: 0.222 FPS
Count of elements: 635
Stream size: 18.2 KiB (0%)
Language: English (US)
Default: No
Forced: No

Text #2
ID: 4
Format: UTF-8
Codec ID: S_TEXT/UTF8
Codec ID/Info: UTF-8 Plain Text
Duration: 49 min 16 s
Bit rate: 55 b/s
Frame rate: 0.251 FPS
Count of elements: 743
Stream size: 20.1 KiB (0%)
Title: SDH
Language: English (US)
Default: No
Forced: No
ssl  EZTV RSS EZTV Status | EZTV API | DMCA: [email protected]