eztv.re | Thursday 1st of June 2023 04:13 AM ET
Search title:  
 

True To Love S01E07 KOREAN WEBRip x264-LAMA EZTV

Episode Breakdown
Bo-ra! Deborah
Bo-ra! Deborah TV Show S01E07

Season: 1
Episode: 7
Download Links
     Torrent Download     Magnet Download
     Anonymous Download
Added 27 days ago by eztv (verified).
Tracker Statistics
Seeds: 0
Peers: 1
Stats generated @ 04:13 on 1st Jun 2023
Torrent Info
Torrent File: True.To.Love.S01E07.KOREAN.WEBRip.x264-LAMA[eztv.re].mp4
Torrent Hash: 10434FFAF99E538E0665D58FF495FC383D327351
Filesize: 638.43 MB
Released: 4th May 2023

File Format: MP4 (MPEG-4)
Resolution: 720x404 px
Aspect Ratio: 16:9

Episode Description


True To Love S01E07 KOREAN WEBRip x264-LAMA EZTV
Bo-ra! Deborah S1E7 Screenshot


General
Complete name: True.To.Love.S01E07.KOREAN.WEBRip.x264-LAMA.mp4
Format: MPEG-4
Format profile: Base Media
Codec ID: isom (isom/iso2/avc1/mp41)
File size: 638 MiB
Duration: 1 h 5 min
Overall bit rate: 1 364 kb/s
Encoded date: UTC 2023-05-03 15:17:24
Tagged date: UTC 2023-05-03 15:17:24

Video
ID: 1
Format: AVC
Format/Info: Advanced Video Codec
Format profile: [email protected]
Format settings: CABAC / 5 Ref Frames
Format settings, CABAC: Yes
Format settings, Reference frames: 5 frames
Codec ID: avc1
Codec ID/Info: Advanced Video Coding
Duration: 1 h 5 min
Bit rate: 1 100 kb/s
Width: 720 pixels
Height: 400 pixels
Display aspect ratio: 16:9
Frame rate mode: Constant
Frame rate: 23.976 (24000/1001) FPS
Color space: YUV
Chroma subsampling: 4:2:0
Bit depth: 8 bits
Scan type: Progressive
Bits/(Pixel*Frame): 0.159
Stream size: 516 MiB (81%)
Title: True.To.Love.S01E07.KOREAN.WEBRip.x264-LAMA
Writing library: x264 core 148 r2795M aaa9aa8
Encoding settings: cabac=1 / ref=5 / deblock=1:-1:-1 / analyse=0x3:0x113 / me=umh / subme=9 / psy=1 / psy_rd=1.00:0.15 / mixed_ref=1 / me_range=16 / chroma_me=1 / trellis=2 / 8x8dct=1 / cqm=0 / deadzone=21,11 / fast_pskip=1 / chroma_qp_offset=-3 / threads=24 / lookahead_threads=2 / sliced_threads=0 / nr=0 / decimate=1 / interlaced=0 / bluray_compat=0 / constrained_intra=0 / bframes=3 / b_pyramid=2 / b_adapt=2 / b_bias=0 / direct=3 / weightb=1 / open_gop=0 / weightp=2 / keyint=250 / keyint_min=23 / scenecut=40 / intra_refresh=0 / rc_lookahead=50 / rc=abr / mbtree=1 / bitrate=1100 / ratetol=1.0 / qcomp=0.60 / qpmin=0 / qpmax=69 / qpstep=4 / ip_ratio=1.40 / aq=1:1.00
Encoded date: UTC 2023-05-03 15:17:24
Tagged date: UTC 2023-05-03 15:17:24
Codec configuration box: avcC

Audio
ID: 2
Format: AAC LC
Format/Info: Advanced Audio Codec Low Complexity
Codec ID: mp4a-40-2
Duration: 1 h 5 min
Duration_LastFrame: -11 ms
Bit rate mode: Constant
Bit rate: 256 kb/s
Channel(s): 2 channels
Channel layout: L R
Sampling rate: 48.0 kHz
Frame rate: 46.875 FPS (1024 SPF)
Compression mode: Lossy
Stream size: 120 MiB (19%)
Title: True.To.Love.S01E07.KOREAN.WEBRip.x264-LAMA
Language: Korean
Default: Yes
Alternate group: 1
Encoded date: UTC 2023-05-03 15:17:24
Tagged date: UTC 2023-05-03 15:17:24
ssl  EZTV RSS EZTV Status | EZTV API | DMCA: [email protected]