eztv.re | Thursday 1st of June 2023 11:45 AM ET
Search title:  
 

Silo S01E03 Machines REPACK 1080p ATVP WEBRip DDP5 1 x264-NTb EZTV

Episode Breakdown
Silo
Silo TV Show S01E03

Season: 1
Episode: 3
Air Date: 12 May, 2023
Download Links
     Torrent Download     Magnet Download
     Anonymous Download
Added 19 days ago by eztv (verified).
Tracker Statistics
Seeds: 141
Peers: 14
Stats generated @ 11:45 on 1st Jun 2023
Torrent Info
Torrent File: Silo.S01E03.Machines.REPACK.1080p.ATVP.WEB-DL.DDP5.1.H.264-NTb[eztv.re].mkv
Torrent Hash: ED060C1F502ED97784BDD1E671FA7287DB4B8E91
Filesize: 4.73 GB
Released: 12th May 2023

File Format: MKV (Matroska)
Resolution: 1920x1080 px
Aspect Ratio: 16:9
Alternate Releases S L
Silo S01E03 1080p WEB H264-GGWP 137 22
Silo S01E03 1080p HEVC x265-MeGusta 953 463
Silo S01E03 720p HEVC x265-MeGusta 90 20
Silo S01E03 XviD-AFG 70 5
Silo S01E03 720p WEB x265-MiNX 60 7
Silo S01E03 480p x264-mSD 61 14
Silo S01E03 720p WEB H264-GGEZ 67 11

Silo S01E03 - Machines

Summary:

 In her hunt for a new sheriff, Mayor Jahns clashes with Bernard. Juliette strikes a deal to keep the generator running.



Silo S01E03 Machines REPACK 1080p ATVP WEBRip DDP5 1 x264-NTb EZTV
Silo S1E3 Screenshot


General
Unique ID: 260038000263362018045726922492258292805 (0xC3A17F4479502A7A49E777F9D8201445)
Complete name: Silo.S01E03.Machines.REPACK.1080p.ATVP.WEB-DL.DDP5.1.H.264-NTb.mkv
Format: Matroska
Format version: Version 4
File size: 4.73 GiB
Duration: 1 h 2 min
Overall bit rate: 10.9 Mb/s
Writing application: mkvmerge v75.0.0 ('Goliath') 64-bit
Writing library: libebml v1.4.4 + libmatroska v1.7.1

Video
ID: 1
Format: AVC
Format/Info: Advanced Video Codec
Format profile: [email protected]
Format settings: CABAC / 4 Ref Frames
Format settings, CABAC: Yes
Format settings, Reference frames: 4 frames
Codec ID: V_MPEG4/ISO/AVC
Duration: 1 h 2 min
Bit rate: 10.1 Mb/s
Width: 1 920 pixels
Height: 960 pixels
Display aspect ratio: 2.000
Frame rate mode: Constant
Frame rate: 23.976 (24000/1001) FPS
Color space: YUV
Chroma subsampling: 4:2:0
Bit depth: 8 bits
Scan type: Progressive
Bits/(Pixel*Frame): 0.229
Stream size: 4.39 GiB (93%)
Default: Yes
Forced: No
Color range: Limited
Color primaries: BT.709
Transfer characteristics: BT.709
Matrix coefficients: BT.709

Audio
ID: 2
Format: E-AC-3 JOC
Format/Info: Enhanced AC-3 with Joint Object Coding
Commercial name: Dolby Digital Plus with Dolby Atmos
Codec ID: A_EAC3
Duration: 1 h 2 min
Bit rate mode: Constant
Bit rate: 768 kb/s
Channel(s): 6 channels
Channel layout: L R C LFE Ls Rs
Sampling rate: 48.0 kHz
Frame rate: 31.250 FPS (1536 SPF)
Compression mode: Lossy
Stream size: 341 MiB (7%)
Language: English
Service kind: Complete Main
Default: Yes
Forced: No
Complexity index: 16
Number of dynamic objects: 15
Bed channel count: 1 channel
Bed channel configuration: LFE

Text #1
ID: 3
Format: UTF-8
Codec ID: S_TEXT/UTF8
Codec ID/Info: UTF-8 Plain Text
Duration: 56 min 55 s
Bit rate: 55 b/s
Frame rate: 0.201 FPS
Count of elements: 687
Stream size: 23.0 KiB (0%)
Language: English
Default: No
Forced: No

Text #2
ID: 4
Format: UTF-8
Codec ID: S_TEXT/UTF8
Codec ID/Info: UTF-8 Plain Text
Duration: 1 h 0 min
Bit rate: 61 b/s
Frame rate: 0.223 FPS
Count of elements: 814
Stream size: 27.4 KiB (0%)
Title: SDH
Language: English
Default: No
Forced: No

Text #3
ID: 5
Format: UTF-8
Codec ID: S_TEXT/UTF8
Codec ID/Info: UTF-8 Plain Text
Duration: 58 min 30 s
Bit rate: 78 b/s
Frame rate: 0.199 FPS
Count of elements: 699
Stream size: 33.4 KiB (0%)
Language: Arabic
Default: No
Forced: No

Text #4
ID: 6
Format: UTF-8
Codec ID: S_TEXT/UTF8
Codec ID/Info: UTF-8 Plain Text
Duration: 58 min 30 s
Bit rate: 77 b/s
Frame rate: 0.185 FPS
Count of elements: 650
Stream size: 33.2 KiB (0%)
Language: Bulgarian
Default: No
Forced: No

Text #5
ID: 7
Format: UTF-8
Codec ID: S_TEXT/UTF8
Codec ID/Info: UTF-8 Plain Text
Duration: 58 min 30 s
Bit rate: 47 b/s
Frame rate: 0.199 FPS
Count of elements: 699
Stream size: 20.3 KiB (0%)
Title: Chinese (Simplified)
Language: Mandarin (Hans)
Default: No
Forced: No

Text #6
ID: 8
Format: UTF-8
Codec ID: S_TEXT/UTF8
Codec ID/Info: UTF-8 Plain Text
Duration: 58 min 30 s
Bit rate: 51 b/s
Frame rate: 0.199 FPS
Count of elements: 700
Stream size: 22.0 KiB (0%)
Title: Chinese (Traditional)
Language: Mandarin (Hant)
Default: No
Forced: No

Text #7
ID: 9
Format: UTF-8
Codec ID: S_TEXT/UTF8
Codec ID/Info: UTF-8 Plain Text
Duration: 58 min 30 s
Bit rate: 46 b/s
Frame rate: 0.190 FPS
Count of elements: 667
Stream size: 20.1 KiB (0%)
Language: Czech
Default: No
Forced: No

Text #8
ID: 10
Format: UTF-8
Codec ID: S_TEXT/UTF8
Codec ID/Info: UTF-8 Plain Text
Duration: 58 min 30 s
Bit rate: 53 b/s
Frame rate: 0.183 FPS
Count of elements: 642
Stream size: 22.8 KiB (0%)
Language: Danish
Default: No
Forced: No

Text #9
ID: 11
Format: UTF-8
Codec ID: S_TEXT/UTF8
Codec ID/Info: UTF-8 Plain Text
Duration: 58 min 36 s
Bit rate: 51 b/s
Frame rate: 0.195 FPS
Count of elements: 684
Stream size: 21.9 KiB (0%)
Language: German
Default: No
Forced: No

Text #10
ID: 12
Format: UTF-8
Codec ID: S_TEXT/UTF8
Codec ID/Info: UTF-8 Plain Text
Duration: 58 min 30 s
Bit rate: 87 b/s
Frame rate: 0.195 FPS
Count of elements: 684
Stream size: 37.4 KiB (0%)
Language: Greek
Default: No
Forced: No

Text #11
ID: 13
Format: UTF-8
Codec ID: S_TEXT/UTF8
Codec ID/Info: UTF-8 Plain Text
Duration: 58 min 30 s
Bit rate: 55 b/s
Frame rate: 0.202 FPS
Count of elements: 708
Stream size: 23.9 KiB (0%)
Title: Spanish (Latin America)
Language: Spanish (Latin America)
Default: No
Forced: No

Text #12
ID: 14
Format: UTF-8
Codec ID: S_TEXT/UTF8
Codec ID/Info: UTF-8 Plain Text
Duration: 58 min 30 s
Bit rate: 55 b/s
Frame rate: 0.202 FPS
Count of elements: 709
Stream size: 24.0 KiB (0%)
Title: Spanish (Spain)
Language: Spanish (ES)
Default: No
Forced: No

Text #13
ID: 15
Format: UTF-8
Codec ID: S_TEXT/UTF8
Codec ID/Info: UTF-8 Plain Text
Duration: 58 min 30 s
Bit rate: 49 b/s
Frame rate: 0.193 FPS
Count of elements: 678
Stream size: 21.3 KiB (0%)
Language: Estonian
Default: No
Forced: No

Text #14
ID: 16
Format: UTF-8
Codec ID: S_TEXT/UTF8
Codec ID/Info: UTF-8 Plain Text
Duration: 58 min 30 s
Bit rate: 46 b/s
Frame rate: 0.186 FPS
Count of elements: 652
Stream size: 19.9 KiB (0%)
Language: Finnish
Default: No
Forced: No

Text #15
ID: 17
Format: UTF-8
Codec ID: S_TEXT/UTF8
Codec ID/Info: UTF-8 Plain Text
Duration: 58 min 34 s
Bit rate: 49 b/s
Frame rate: 0.214 FPS
Count of elements: 751
Stream size: 21.0 KiB (0%)
Title: French (Canada)
Language: French (CA)
Default: No
Forced: No

Text #16
ID: 18
Format: UTF-8
Codec ID: S_TEXT/UTF8
Codec ID/Info: UTF-8 Plain Text
Duration: 58 min 34 s
Bit rate: 49 b/s
Frame rate: 0.214 FPS
Count of elements: 751
Stream size: 21.0 KiB (0%)
Title: French (France)
Language: French (FR)
Default: No
Forced: No

Text #17
ID: 19
Format: UTF-8
Codec ID: S_TEXT/UTF8
Codec ID/Info: UTF-8 Plain Text
Duration: 58 min 30 s
Bit rate: 76 b/s
Frame rate: 0.199 FPS
Count of elements: 699
Stream size: 32.8 KiB (0%)
Language: Hebrew
Default: No
Forced: No

Text #18
ID: 20
Format: UTF-8
Codec ID: S_TEXT/UTF8
Codec ID/Info: UTF-8 Plain Text
Duration: 58 min 30 s
Bit rate: 141 b/s
Frame rate: 0.199 FPS
Count of elements: 700
Stream size: 60.4 KiB (0%)
Language: Hindi
Default: No
Forced: No

Text #19
ID: 21
Format: UTF-8
Codec ID: S_TEXT/UTF8
Codec ID/Info: UTF-8 Plain Text
Duration: 58 min 30 s
Bit rate: 50 b/s
Frame rate: 0.198 FPS
Count of elements: 695
Stream size: 21.5 KiB (0%)
Language: Hungarian
Default: No
Forced: No

Text #20
ID: 22
Format: UTF-8
Codec ID: S_TEXT/UTF8
Codec ID/Info: UTF-8 Plain Text
Duration: 58 min 30 s
Bit rate: 53 b/s
Frame rate: 0.199 FPS
Count of elements: 697
Stream size: 23.1 KiB (0%)
Language: Indonesian
Default: No
Forced: No

Text #21
ID: 23
Format: UTF-8
Codec ID: S_TEXT/UTF8
Codec ID/Info: UTF-8 Plain Text
Duration: 57 min 57 s
Bit rate: 55 b/s
Frame rate: 0.199 FPS
Count of elements: 691
Stream size: 23.4 KiB (0%)
Language: Italian
Default: No
Forced: No

Text #22
ID: 24
Format: UTF-8
Codec ID: S_TEXT/UTF8
Codec ID/Info: UTF-8 Plain Text
Duration: 58 min 25 s
Bit rate: 43 b/s
Frame rate: 0.206 FPS
Count of elements: 722
Stream size: 18.7 KiB (0%)
Language: Japanese
Default: No
Forced: No

Text #23
ID: 25
Format: UTF-8
Codec ID: S_TEXT/UTF8
Codec ID/Info: UTF-8 Plain Text
Duration: 58 min 30 s
Bit rate: 62 b/s
Frame rate: 0.199 FPS
Count of elements: 700
Stream size: 26.7 KiB (0%)
Language: Korean
Default: No
Forced: No

Text #24
ID: 26
Format: UTF-8
Codec ID: S_TEXT/UTF8
Codec ID/Info: UTF-8 Plain Text
Duration: 58 min 30 s
Bit rate: 53 b/s
Frame rate: 0.199 FPS
Count of elements: 699
Stream size: 23.1 KiB (0%)
Language: Lithuanian
Default: No
Forced: No

Text #25
ID: 27
Format: UTF-8
Codec ID: S_TEXT/UTF8
Codec ID/Info: UTF-8 Plain Text
Duration: 58 min 30 s
Bit rate: 55 b/s
Frame rate: 0.197 FPS
Count of elements: 690
Stream size: 23.9 KiB (0%)
Language: Latvian
Default: No
Forced: No

Text #26
ID: 28
Format: UTF-8
Codec ID: S_TEXT/UTF8
Codec ID/Info: UTF-8 Plain Text
Duration: 58 min 30 s
Bit rate: 51 b/s
Frame rate: 0.198 FPS
Count of elements: 696
Stream size: 22.2 KiB (0%)
Language: Malay
Default: No
Forced: No

Text #27
ID: 29
Format: UTF-8
Codec ID: S_TEXT/UTF8
Codec ID/Info: UTF-8 Plain Text
Duration: 58 min 30 s
Bit rate: 48 b/s
Frame rate: 0.168 FPS
Count of elements: 591
Stream size: 20.6 KiB (0%)
Language: Dutch
Default: No
Forced: No

Text #28
ID: 30
Format: UTF-8
Codec ID: S_TEXT/UTF8
Codec ID/Info: UTF-8 Plain Text
Duration: 58 min 30 s
Bit rate: 46 b/s
Frame rate: 0.166 FPS
Count of elements: 584
Stream size: 19.8 KiB (0%)
Language: Norwegian
Default: No
Forced: No

Text #29
ID: 31
Format: UTF-8
Codec ID: S_TEXT/UTF8
Codec ID/Info: UTF-8 Plain Text
Duration: 58 min 30 s
Bit rate: 48 b/s
Frame rate: 0.186 FPS
Count of elements: 654
Stream size: 20.8 KiB (0%)
Language: Polish
Default: No
Forced: No

Text #30
ID: 32
Format: UTF-8
Codec ID: S_TEXT/UTF8
Codec ID/Info: UTF-8 Plain Text
Duration: 58 min 30 s
Bit rate: 54 b/s
Frame rate: 0.198 FPS
Count of elements: 695
Stream size: 23.4 KiB (0%)
Title: Portuguese
Language: Portuguese
Default: No
Forced: No

Text #31
ID: 33
Format: UTF-8
Codec ID: S_TEXT/UTF8
Codec ID/Info: UTF-8 Plain Text
Duration: 58 min 30 s
Bit rate: 50 b/s
Frame rate: 0.195 FPS
Count of elements: 685
Stream size: 21.6 KiB (0%)
Title: Portuguese (Brazil)
Language: Portuguese (BR)
Default: No
Forced: No

Text #32
ID: 34
Format: UTF-8
Codec ID: S_TEXT/UTF8
Codec ID/Info: UTF-8 Plain Text
Duration: 58 min 34 s
Bit rate: 79 b/s
Frame rate: 0.196 FPS
Count of elements: 688
Stream size: 34.2 KiB (0%)
Language: Russian
Default: No
Forced: No

Text #33
ID: 35
Format: UTF-8
Codec ID: S_TEXT/UTF8
Codec ID/Info: UTF-8 Plain Text
Duration: 58 min 30 s
Bit rate: 49 b/s
Frame rate: 0.199 FPS
Count of elements: 697
Stream size: 21.2 KiB (0%)
Language: Slovak
Default: No
Forced: No

Text #34
ID: 36
Format: UTF-8
Codec ID: S_TEXT/UTF8
Codec ID/Info: UTF-8 Plain Text
Duration: 58 min 30 s
Bit rate: 44 b/s
Frame rate: 0.187 FPS
Count of elements: 656
Stream size: 19.1 KiB (0%)
Language: Slovenian
Default: No
Forced: No

Text #35
ID: 37
Format: UTF-8
Codec ID: S_TEXT/UTF8
Codec ID/Info: UTF-8 Plain Text
Duration: 58 min 30 s
Bit rate: 52 b/s
Frame rate: 0.199 FPS
Count of elements: 697
Stream size: 22.6 KiB (0%)
Language: Swedish
Default: No
Forced: No

Text #36
ID: 38
Format: UTF-8
Codec ID: S_TEXT/UTF8
Codec ID/Info: UTF-8 Plain Text
Duration: 58 min 30 s
Bit rate: 163 b/s
Frame rate: 0.199 FPS
Count of elements: 699
Stream size: 70.0 KiB (0%)
Language: Tamil
Default: No
Forced: No

Text #37
ID: 39
Format: UTF-8
Codec ID: S_TEXT/UTF8
Codec ID/Info: UTF-8 Plain Text
Duration: 58 min 30 s
Bit rate: 159 b/s
Frame rate: 0.199 FPS
Count of elements: 699
Stream size: 68.4 KiB (0%)
Language: Telugu
Default: No
Forced: No

Text #38
ID: 40
Format: UTF-8
Codec ID: S_TEXT/UTF8
Codec ID/Info: UTF-8 Plain Text
Duration: 58 min 30 s
Bit rate: 139 b/s
Frame rate: 0.199 FPS
Count of elements: 699
Stream size: 59.6 KiB (0%)
Language: Thai
Default: No
Forced: No

Text #39
ID: 41
Format: UTF-8
Codec ID: S_TEXT/UTF8
Codec ID/Info: UTF-8 Plain Text
Duration: 58 min 30 s
Bit rate: 53 b/s
Frame rate: 0.195 FPS
Count of elements: 685
Stream size: 22.9 KiB (0%)
Language: Turkish
Default: No
Forced: No

Text #40
ID: 42
Format: UTF-8
Codec ID: S_TEXT/UTF8
Codec ID/Info: UTF-8 Plain Text
Duration: 58 min 30 s
Bit rate: 78 b/s
Frame rate: 0.199 FPS
Count of elements: 699
Stream size: 33.7 KiB (0%)
Language: Ukrainian
Default: No
Forced: No

Text #41
ID: 43
Format: UTF-8
Codec ID: S_TEXT/UTF8
Codec ID/Info: UTF-8 Plain Text
Duration: 58 min 30 s
Bit rate: 68 b/s
Frame rate: 0.199 FPS
Count of elements: 698
Stream size: 29.4 KiB (0%)
Language: Vietnamese
Default: No
Forced: No

Text #42
ID: 44
Format: UTF-8
Codec ID: S_TEXT/UTF8
Codec ID/Info: UTF-8 Plain Text
Duration: 58 min 30 s
Bit rate: 47 b/s
Frame rate: 0.199 FPS
Count of elements: 700
Stream size: 20.3 KiB (0%)
Title: Cantonese (Traditional)
Language: Cantonese (Hant)
Default: No
Forced: No

Menu
00:00:00.000: en:Chapter 1
00:02:08.666: en:Intro
00:03:25.625: en:Chapter 2
ssl  EZTV RSS EZTV Status | EZTV API | DMCA: [email protected]